<?xml version="1.0" standalone="no"?>
<!DOCTYPE svg PUBLIC "-//W3C//DTD SVG 1.1//EN" "http://www.w3.org/Graphics/SVG/1.1/DTD/svg11.dtd" >
<svg xmlns="http://www.w3.org/2000/svg" xmlns:xlink="http://www.w3.org/1999/xlink" version="1.1">
<metadata>
Created by FontForge 20190801 at Tue Oct 23 21:00:22 2018
 By www-data
(C)2009 Commercial Type.
</metadata>
<defs>
<font id="GraphikRegularWeb" horiz-adv-x="600" >
  <font-face 
    font-family="GraphikRegularWeb"
    font-weight="400"
    font-stretch="normal"
    units-per-em="1000"
    panose-1="2 11 5 3 3 2 2 6 2 3"
    ascent="800"
    descent="-200"
    x-height="523"
    cap-height="715"
    bbox="-230 -224 1092 1113"
    underline-thickness="50"
    underline-position="-100"
    unicode-range="U+000D-FB02"
  />
<missing-glyph horiz-adv-x="500" 
 />
    <glyph glyph-name="f_f" unicode="ff" horiz-adv-x="634" 
d="M102 453h-75v70h75v78q0 80 39 124t117 44q20 0 33 -2.5t29 -7.5v-70q-11 5 -26.5 8t-32.5 3q-41 0 -58.5 -25t-17.5 -65v-87h205v85q0 80 39 124t117 44q20 0 33 -2.5t29 -7.5v-70q-11 5 -26.5 8t-32.5 3q-41 0 -58.5 -25t-17.5 -65v-94h128v-70h-128v-453h-83v453h-205
v-453h-83v453z" />
    <glyph glyph-name=".notdef" horiz-adv-x="500" 
 />
    <glyph glyph-name=".null" horiz-adv-x="0" 
 />
    <glyph glyph-name="nonmarkingreturn" unicode="&#xd;" horiz-adv-x="265" 
 />
    <glyph glyph-name="NULL" horiz-adv-x="0" 
 />
    <glyph glyph-name="NULL" horiz-adv-x="0" 
 />
    <glyph glyph-name="space" unicode=" " horiz-adv-x="265" 
 />
    <glyph glyph-name="exclam" unicode="!" horiz-adv-x="286" 
d="M143 -5q-26 0 -45 18.5t-19 45.5t19 45.5t45 18.5t45 -18.5t19 -45.5t-19 -45.5t-45 -18.5zM98 715h92l-14 -513h-64z" />
    <glyph glyph-name="quotedbl" unicode="&#x22;" horiz-adv-x="375" 
d="M61 715h90l-15 -245h-60zM224 715h90l-15 -245h-60z" />
    <glyph glyph-name="numbersign" unicode="#" horiz-adv-x="503" 
d="M278 282h-97l-26 -183h-68l26 183h-83v70h94l19 132h-85v70h95l24 161h68l-24 -161h97l24 161h68l-24 -161h87v-70h-97l-19 -132h88v-70h-99l-26 -183h-68zM192 352h97l19 132h-97z" />
    <glyph glyph-name="dollar" unicode="$" horiz-adv-x="627" 
d="M285 -8q-64 4 -108 24t-71.5 50.5t-42 69.5t-18.5 82h84q4 -29 11.5 -56t24.5 -48t45.5 -35.5t74.5 -18.5v278q-50 9 -89 23.5t-66 37t-41.5 54.5t-14.5 77q0 39 15.5 73t43 59.5t66.5 41.5t86 19v90h59v-91q91 -8 144.5 -57.5t63.5 -137.5h-78q-11 58 -42.5 88.5
t-87.5 38.5v-250q55 -10 97 -24.5t70 -38t42 -57.5t14 -82q0 -43 -16.5 -80t-46 -65t-70.5 -45t-90 -20v-127h-59v127zM484 196q0 28 -6.5 48.5t-22.5 36.5t-43 27t-68 20v-268q30 3 55.5 14t44.5 29t29.5 41.5t10.5 51.5zM153 538q0 -24 5 -43t19.5 -34t40 -26.5
t67.5 -20.5v241q-63 -5 -97.5 -37.5t-34.5 -79.5z" />
    <glyph glyph-name="percent" unicode="%" horiz-adv-x="784" 
d="M198 448q41 0 64.5 26.5t23.5 77.5q0 48 -23.5 76t-64.5 28q-40 0 -64 -27t-24 -78t24 -77t64 -26zM198 383q-32 0 -61.5 12.5t-52.5 34.5t-36.5 53t-13.5 67q0 37 13.5 68.5t36 54t52 35.5t62.5 13t63 -13t52.5 -35.5t35.5 -53.5t13 -67q0 -37 -13.5 -68t-36 -53.5
t-52.5 -35t-62 -12.5zM572 715h76l-437 -715h-76zM586 57q41 0 64.5 26.5t23.5 77.5q0 48 -23.5 76t-64.5 28q-40 0 -64 -27t-24 -78t24 -77t64 -26zM586 -8q-32 0 -61.5 12.5t-52.5 34.5t-36.5 53t-13.5 67q0 37 13.5 68.5t36 54t52 35.5t62.5 13t63 -13t52.5 -35.5
t35.5 -53.5t13 -67q0 -37 -13.5 -68t-36 -53.5t-52.5 -35t-62 -12.5z" />
    <glyph glyph-name="ampersand" unicode="&#x26;" horiz-adv-x="686" 
d="M527 146l120 -146h-101l-71 86q-34 -39 -82 -66t-116 -27q-49 0 -90.5 14t-71.5 39.5t-47 62t-17 80.5q0 42 12.5 74.5t35 58t52 45.5t64.5 37q-63 81 -63 151q0 40 14.5 71t39 51.5t56 31t65.5 10.5q33 0 61.5 -11t49.5 -30.5t33 -46.5t12 -59q0 -65 -42.5 -110.5
t-110.5 -74.5l150 -183l87 165h77zM280 61q87 0 152 78l-178 217q-26 -13 -48 -27.5t-38 -33.5t-24.5 -43t-8.5 -55q0 -65 38.5 -100.5t106.5 -35.5zM232 554q0 -27 16.5 -55.5t45.5 -65.5q60 27 85.5 58t25.5 83q0 35 -22.5 57.5t-58.5 22.5q-38 0 -65 -23.5t-27 -76.5z
" />
    <glyph glyph-name="quotesingle" unicode="'" horiz-adv-x="212" 
d="M61 715h90l-15 -245h-60z" />
    <glyph glyph-name="parenleft" unicode="(" horiz-adv-x="322" 
d="M219 -148q-35 40 -65 89t-52.5 106.5t-35.5 123.5t-13 141t13 141t35.5 123.5t52.5 106.5t65 90h83q-34 -42 -63.5 -90.5t-51.5 -105t-34.5 -122.5t-12.5 -143t12.5 -143t34.5 -122.5t51.5 -104.5t63.5 -90h-83z" />
    <glyph glyph-name="parenright" unicode=")" horiz-adv-x="322" 
d="M20 -145q34 42 63.5 90.5t51.5 105t34.5 122.5t12.5 143t-12.5 143t-34.5 122.5t-51.5 104.5t-63.5 90h83q34 -41 64.5 -89.5t53 -106t35.5 -123.5t13 -141t-13 -141t-35.5 -123.5t-53 -107t-64.5 -89.5h-83z" />
    <glyph glyph-name="asterisk" unicode="*" horiz-adv-x="422" 
d="M82 450l83 111l-123 29l22 67l118 -48l-7 134h73l-7 -134l117 48l22 -67l-124 -29l83 -111l-56 -41l-74 120l-70 -120z" />
    <glyph glyph-name="plus" unicode="+" horiz-adv-x="519" 
d="M223 307h-187v70h187v202h73v-202h187v-70h-187v-202h-73v202z" />
    <glyph glyph-name="comma" unicode="," horiz-adv-x="282" 
d="M36 -95l96 219l81 -38l-123 -209z" />
    <glyph glyph-name="hyphen" unicode="-" horiz-adv-x="334" 
d="M60 314h214v-78h-214v78z" />
    <glyph glyph-name="period" unicode="." horiz-adv-x="282" 
d="M141 -5q-26 0 -45 18.5t-19 45.5t19 45.5t45 18.5t45 -18.5t19 -45.5t-19 -45.5t-45 -18.5z" />
    <glyph glyph-name="slash" unicode="/" horiz-adv-x="403" 
d="M297 776h76l-291 -924h-76z" />
    <glyph glyph-name="zero" unicode="0" horiz-adv-x="681" 
d="M344 63q94 0 141.5 70t47.5 207v40q0 62 -13 112.5t-37.5 86.5t-60 55.5t-80.5 19.5q-91 0 -142 -71.5t-51 -204.5v-40q0 -136 53 -205.5t142 -69.5zM344 -9q-64 0 -116.5 25t-89.5 70t-57.5 109t-20.5 142v40q0 79 19.5 143t56 109.5t88.5 70t118 24.5t118 -25t87.5 -71
t54.5 -109.5t19 -139.5v-40q0 -78 -18.5 -142t-54 -110t-87 -71t-117.5 -25z" />
    <glyph glyph-name="one" unicode="1" horiz-adv-x="399" 
d="M193 629l-160 -115v81l166 120h81v-715h-87v629z" />
    <glyph glyph-name="two" unicode="2" horiz-adv-x="554" 
d="M19 20l284 299q49 52 76 102t27 105q0 60 -33.5 94t-94.5 34q-63 0 -101.5 -37t-49.5 -122h-81q4 52 21.5 94.5t47.5 72.5t71 46t92 16q49 0 89 -14t68.5 -40.5t43.5 -63.5t15 -83q0 -66 -39 -130.5t-105 -129.5l-197 -192h345v-71h-479v20z" />
    <glyph glyph-name="three" unicode="3" horiz-adv-x="604" 
d="M290 -9q-57 0 -102.5 17t-77.5 46.5t-50 69.5t-20 87h80q3 -32 14.5 -59.5t32.5 -47.5t52 -31.5t73 -11.5q85 0 124 37.5t39 100.5q0 139 -151 139h-54v73h50q70 0 102 31.5t32 90.5q0 51 -32 85.5t-98 34.5q-67 0 -109 -37t-49 -98h-76q2 42 19.5 79.5t48.5 65.5
t73 44.5t93 16.5t91 -15.5t67.5 -42t42 -60.5t14.5 -71q0 -61 -32 -98.5t-81 -57.5q63 -17 100.5 -61t37.5 -119q0 -49 -19 -87.5t-52.5 -65.5t-80.5 -41t-102 -14z" />
    <glyph glyph-name="four" unicode="4" horiz-adv-x="617" 
d="M397 150h-358v28l327 537h116v-494h99v-71h-99v-150h-85v150zM397 221v428l-248 -428h248z" />
    <glyph glyph-name="five" unicode="5" horiz-adv-x="587" 
d="M281 -9q-58 0 -101 15t-72 42t-45 64t-20 81h83q5 -29 14.5 -53.5t27 -42t44.5 -27t68 -9.5q73 0 115 46t42 127q0 76 -40.5 121.5t-109.5 45.5q-63 0 -101.5 -18.5t-67.5 -50.5h-32v383h402v-75h-330v-218q22 20 58.5 34.5t87.5 14.5q48 0 88.5 -16.5t70.5 -47.5
t46.5 -74.5t16.5 -98.5q0 -57 -19 -102t-52.5 -76.5t-78 -48t-95.5 -16.5z" />
    <glyph glyph-name="six" unicode="6" horiz-adv-x="619" 
d="M317 -9q-73 0 -122.5 25.5t-79.5 70t-42.5 103.5t-12.5 126v17q0 96 20.5 169.5t58 122.5t88.5 74t113 25q84 0 139.5 -43t69.5 -130h-83q-12 50 -42 76t-90 26q-81 0 -133 -72t-55 -214q26 44 73.5 70.5t110.5 26.5q53 0 96.5 -18t74 -49.5t47 -74.5t16.5 -92
q0 -54 -17.5 -98t-49.5 -75.5t-77.5 -48.5t-102.5 -17zM317 59q35 0 64 12t50 33.5t32.5 52.5t11.5 69q0 78 -43 124t-116 46q-36 0 -66 -11.5t-52 -32.5t-34 -50t-12 -64q0 -88 46.5 -133.5t118.5 -45.5z" />
    <glyph glyph-name="seven" unicode="7" horiz-adv-x="525" 
d="M395 645h-363v70h471v-12l-268 -703h-89z" />
    <glyph glyph-name="eight" unicode="8" horiz-adv-x="607" 
d="M304 -9q-44 0 -88 13t-79.5 39.5t-57.5 66.5t-22 93q0 72 39 118.5t96 66.5q-51 20 -79.5 58.5t-28.5 91.5q0 43 19 77.5t50 58.5t70.5 37t80.5 13q42 0 81 -13t70 -37t49.5 -58t18.5 -76q0 -54 -30 -91.5t-80 -59.5q63 -23 100 -69t37 -115q0 -54 -21.5 -94t-56 -66.5
t-79 -40t-89.5 -13.5zM304 62q33 0 61.5 9.5t50 28t33.5 45.5t12 63q0 35 -12.5 61.5t-33.5 44.5t-49 27t-60 9t-61 -9t-51 -27t-35 -45t-13 -63q0 -35 13 -62t35 -45t50.5 -27.5t59.5 -9.5zM307 419q57 0 92.5 31.5t35.5 88.5q0 26 -10 47.5t-27.5 37t-41.5 24t-52 8.5
t-52 -8t-42 -23.5t-28 -37.5t-10 -50t11 -50t29.5 -37t43 -23t51.5 -8z" />
    <glyph glyph-name="nine" unicode="9" horiz-adv-x="620" 
d="M290 -8q-100 0 -158 48.5t-72 135.5h84q12 -53 45.5 -83t102.5 -30q86 0 133.5 70.5t49.5 213.5q-26 -44 -74.5 -69.5t-110.5 -25.5q-52 0 -95.5 17.5t-74.5 49t-48 74t-17 93.5q0 54 17.5 98t49.5 75.5t77.5 48.5t102.5 17q128 0 192.5 -82.5t64.5 -237.5v-45
q0 -179 -70 -273.5t-199 -94.5zM303 320q36 0 66 11t52 31.5t34 49t12 63.5q0 88 -46.5 135t-118.5 47q-35 0 -64 -12t-50 -33.5t-32.5 -52.5t-11.5 -69q0 -78 43 -124t116 -46z" />
    <glyph glyph-name="colon" unicode=":" horiz-adv-x="292" 
d="M146 -5q-26 0 -45 18.5t-19 45.5t19 45.5t45 18.5t45 -18.5t19 -45.5t-19 -45.5t-45 -18.5zM146 292q-26 0 -45 18.5t-19 45.5t19 45.5t45 18.5t45 -18.5t19 -45.5t-19 -45.5t-45 -18.5z" />
    <glyph glyph-name="semicolon" unicode=";" horiz-adv-x="292" 
d="M21 -95l96 219l81 -38l-123 -209zM155 292q-26 0 -45 18.5t-19 45.5t19 45.5t45 18.5t45 -18.5t19 -45.5t-19 -45.5t-45 -18.5z" />
    <glyph glyph-name="less" unicode="&#x3c;" horiz-adv-x="504" 
d="M53 312v20l384 217v-80l-263 -147l263 -147v-80z" />
    <glyph glyph-name="equal" unicode="=" horiz-adv-x="484" 
d="M40 268h404v-72h-404v72zM40 448h404v-72h-404v72z" />
    <glyph glyph-name="greater" unicode="&#x3e;" horiz-adv-x="504" 
d="M67 175l263 147l-263 147v80l384 -217v-20l-384 -217v80z" />
    <glyph glyph-name="question" unicode="?" horiz-adv-x="489" 
d="M179 252q0 30 9 55t23.5 47t33 41t37.5 37q29 29 51 58t22 65q0 45 -25.5 72.5t-81.5 27.5q-57 0 -92.5 -35t-40.5 -95h-78q3 44 19 80.5t44 63t65.5 41t83.5 14.5q51 0 87 -14t59 -37.5t33.5 -53.5t10.5 -61q0 -28 -8.5 -51t-22.5 -43t-31.5 -38t-35.5 -35
q-17 -16 -33 -32.5t-28 -34t-19.5 -37t-7.5 -42.5v-43h-74v50zM214 -5q-26 0 -45 18.5t-19 45.5t19 45.5t45 18.5t45 -18.5t19 -45.5t-19 -45.5t-45 -18.5z" />
    <glyph glyph-name="at" unicode="@" horiz-adv-x="915" 
d="M459 -147q-100 0 -177.5 33.5t-130 90t-79.5 130t-27 153.5q0 92 34 170.5t92.5 135.5t136 89.5t164.5 32.5q90 0 163 -28t125.5 -77.5t81 -116.5t28.5 -144q0 -71 -18 -119.5t-46 -78.5t-61 -43.5t-63 -13.5t-51 6t-34 17.5t-20 27t-10 35.5q-22 -39 -62 -66t-87 -27
q-73 0 -117 46.5t-44 127.5q0 50 15.5 92.5t42 73.5t62.5 48.5t77 17.5q27 0 47 -6t35 -15.5t24.5 -21.5t14.5 -25l7 60h83l-30 -252q-10 -79 48 -79q21 0 42 11t37 34.5t26 60t10 87.5q0 67 -22 122.5t-64 95.5t-102.5 62t-137.5 22q-76 0 -140 -26.5t-110.5 -74t-73 -114
t-26.5 -145.5q0 -68 21.5 -130.5t63.5 -109.5t105 -75t147 -28q41 0 74 5t61.5 15.5t53 25.5t47.5 35h77q-19 -33 -50 -60t-71.5 -46.5t-89 -30t-102.5 -10.5zM436 124q23 0 46 10.5t41 31t29.5 51t11.5 70.5q0 57 -27.5 85t-76.5 28q-24 0 -45 -11t-37.5 -32t-26 -52
t-9.5 -70q0 -53 26.5 -82t67.5 -29z" />
    <glyph glyph-name="A" unicode="A" horiz-adv-x="674" 
d="M282 715h114l242 -715h-86l-70 206h-295l-69 -206h-82zM211 275h248l-124 368z" />
    <glyph glyph-name="B" unicode="B" horiz-adv-x="622" 
d="M90 715h215q50 0 92 -9t73 -30.5t48 -57t17 -88.5v-4q0 -49 -23.5 -89.5t-84.5 -61.5q78 -19 110.5 -60t32.5 -111v-4q0 -51 -16.5 -88.5t-47.5 -62t-74 -37t-97 -12.5h-245v715zM333 68q78 0 115 33.5t37 99.5v4q0 66 -38.5 98t-125.5 32h-146v-267h158zM305 403
q79 0 112 30t33 96v4q0 61 -36 87.5t-111 26.5h-128v-244h130z" />
    <glyph glyph-name="C" unicode="C" horiz-adv-x="730" 
d="M389 -9q-78 0 -139.5 25.5t-105 73t-66.5 114t-23 149.5v8q0 79 25 146t70 116t106.5 76t134.5 27q56 0 106 -15t89 -44t64 -73t31 -102h-86q-14 82 -62.5 123.5t-140.5 41.5q-56 0 -101.5 -21t-77.5 -59t-50 -93t-18 -122v-8q0 -68 17 -122.5t48.5 -92t77 -57.5
t103.5 -20q88 0 145 43.5t71 131.5h81q-19 -124 -99 -185t-200 -61z" />
    <glyph glyph-name="D" unicode="D" horiz-adv-x="696" 
d="M275 71q69 0 120.5 20t86 57t52 89.5t17.5 118.5v8q0 62 -15.5 113.5t-49 89t-86 58t-126.5 20.5h-97v-574h98zM90 715h189q92 0 160 -27t113 -74t67 -111t22 -139v-9q0 -74 -21.5 -139t-66.5 -113t-113.5 -75.5t-162.5 -27.5h-187v715z" />
    <glyph glyph-name="E" unicode="E" horiz-adv-x="566" 
d="M90 715h417v-71h-330v-243h266v-71h-266v-259h348v-71h-435v715z" />
    <glyph glyph-name="F" unicode="F" horiz-adv-x="546" 
d="M90 715h418v-71h-331v-253h258v-71h-258v-320h-87v715z" />
    <glyph glyph-name="G" unicode="G" horiz-adv-x="767" 
d="M401 -9q-83 0 -147 27t-108.5 75.5t-67.5 115t-23 144.5v8q0 78 25 145t71 116t109.5 76.5t140.5 27.5q53 0 102 -13t88.5 -40.5t66 -70.5t34.5 -103h-87q-15 85 -69.5 121.5t-132.5 36.5q-62 0 -110 -21.5t-81 -60.5t-50 -93t-17 -120v-8q0 -66 16.5 -120.5t48.5 -92.5
t80 -59t111 -21q58 0 100 18t69.5 48.5t41 72t14.5 89.5h-209v72h294v-53q0 -78 -22.5 -137t-63.5 -99t-98 -60.5t-126 -20.5z" />
    <glyph glyph-name="H" unicode="H" horiz-adv-x="730" 
d="M90 715h87v-324h376v324h87v-715h-87v318h-376v-318h-87v715z" />
    <glyph glyph-name="I" unicode="I" horiz-adv-x="277" 
d="M95 715h87v-715h-87v715z" />
    <glyph glyph-name="J" unicode="J" horiz-adv-x="420" 
d="M138 -9q-41 0 -63.5 5.5t-36.5 13.5v72q20 -8 41.5 -14t53.5 -6q54 0 85 32t31 104v517h87v-521q0 -54 -15.5 -92t-42.5 -63t-63 -36.5t-77 -11.5z" />
    <glyph glyph-name="K" unicode="K" horiz-adv-x="616" 
d="M90 715h87v-344l311 344h97l-318 -347l334 -368h-105l-319 349v-349h-87v715z" />
    <glyph glyph-name="L" unicode="L" horiz-adv-x="535" 
d="M90 715h87v-644h327v-71h-414v715z" />
    <glyph glyph-name="M" unicode="M" horiz-adv-x="856" 
d="M90 715h121l221 -557l214 557h120v-715h-87v602l-237 -602h-27l-245 602v-602h-80v715z" />
    <glyph glyph-name="N" unicode="N" horiz-adv-x="724" 
d="M90 715h113l348 -591v591h83v-715h-100l-361 613v-613h-83v715z" />
    <glyph glyph-name="O" unicode="O" horiz-adv-x="811" 
d="M409 63q60 0 107.5 21.5t80.5 60t51 92.5t18 119v8q0 60 -17.5 113t-50.5 92t-81 62t-110 23t-111 -21.5t-82.5 -60.5t-51 -92.5t-17.5 -117.5v-8q0 -65 20.5 -118.5t56 -92t83.5 -59.5t104 -21zM409 -9q-79 0 -144.5 28.5t-112 77.5t-72 115t-25.5 141v8
q0 76 25.5 142.5t72 115.5t111 77t143.5 28t143 -28t110 -77t71 -115t25 -141v-8q0 -76 -25 -142t-70.5 -115.5t-109.5 -78t-142 -28.5z" />
    <glyph glyph-name="P" unicode="P" horiz-adv-x="581" 
d="M90 715h203q51 0 96.5 -11.5t79.5 -37t54 -65t20 -95.5v-4q0 -57 -20 -97t-54 -65.5t-79.5 -37t-96.5 -11.5h-116v-291h-87v715zM299 360q77 0 117 36.5t40 105.5v4q0 76 -42 107.5t-115 31.5h-122v-285h122z" />
    <glyph glyph-name="Q" unicode="Q" horiz-adv-x="811" 
d="M559 23q-67 -32 -150 -32q-79 0 -144.5 28.5t-112 77.5t-72 115t-25.5 141v8q0 76 25.5 142.5t72 115.5t111 77t143.5 28t143 -28t110 -77t71 -115t25 -141v-8q0 -91 -35.5 -167t-98.5 -126l90 -100l-53 -51zM409 63q54 0 98 18l-80 90l53 51l91 -103q46 39 70.5 99.5
t24.5 137.5v8q0 60 -17.5 113t-50.5 92t-81 62t-110 23t-111 -21.5t-82.5 -60.5t-51 -92.5t-17.5 -117.5v-8q0 -65 20.5 -118.5t56 -92t83.5 -59.5t104 -21z" />
    <glyph glyph-name="R" unicode="R" horiz-adv-x="628" 
d="M90 715h215q51 0 96.5 -11t79.5 -35t54 -61.5t20 -91.5v-4q0 -44 -14 -77.5t-38 -57t-56 -38.5t-69 -22l219 -317h-97l-213 311h-110v-311h-87v715zM311 380q77 0 117 33t40 99v4q0 36 -11 61t-31 40t-49.5 21.5t-65.5 6.5h-134v-265h134z" />
    <glyph glyph-name="S" unicode="S" horiz-adv-x="627" 
d="M321 -9q-72 0 -121.5 18.5t-81.5 49.5t-48.5 72t-21.5 87h84q4 -32 14 -60.5t31 -50t55.5 -34t88.5 -12.5q34 0 64 9.5t52 27.5t34.5 43t12.5 55t-8 52.5t-27.5 38.5t-53 27t-84.5 19q-56 9 -100.5 23t-75.5 36.5t-47 56t-16 81.5q0 41 17 76.5t47.5 61.5t72.5 41t93 15
q108 0 171.5 -50.5t74.5 -146.5h-78q-13 68 -53 97.5t-115 29.5q-74 0 -111.5 -32.5t-37.5 -83.5q0 -26 6.5 -46.5t25 -35.5t52 -26.5t88.5 -19.5q60 -9 105 -24t76 -39t46.5 -59t15.5 -86q0 -45 -18.5 -83.5t-51.5 -67t-78.5 -44.5t-98.5 -16z" />
    <glyph glyph-name="T" unicode="T" horiz-adv-x="561" 
d="M237 644h-208v71h503v-71h-208v-644h-87v644z" />
    <glyph glyph-name="U" unicode="U" horiz-adv-x="696" 
d="M341 -9q-124 0 -190.5 69.5t-66.5 200.5v454h87v-444q0 -56 10 -95.5t31 -64.5t53.5 -36.5t77.5 -11.5q43 0 76.5 10t57 35t36 67.5t12.5 108.5v431h87v-443q0 -131 -66.5 -206t-204.5 -75z" />
    <glyph glyph-name="V" unicode="V" horiz-adv-x="654" 
d="M30 715h86l213 -631l213 631h82l-247 -715h-104z" />
    <glyph glyph-name="W" unicode="W" horiz-adv-x="928" 
d="M34 715h89l145 -577l168 577h62l168 -579l147 579h81l-186 -715h-80l-162 565l-167 -565h-79z" />
    <glyph glyph-name="X" unicode="X" horiz-adv-x="657" 
d="M281 367l-220 348h96l178 -281l177 281h89l-222 -348l233 -367h-98l-191 301l-191 -301h-87z" />
    <glyph glyph-name="Y" unicode="Y" horiz-adv-x="598" 
d="M262 312l-239 403h98l187 -332l180 332h87l-226 -404v-311h-87v312z" />
    <glyph glyph-name="Z" unicode="Z" horiz-adv-x="595" 
d="M28 14l405 630h-369v71h489v-13l-394 -628h388v-74h-519v14z" />
    <glyph glyph-name="bracketleft" unicode="[" horiz-adv-x="356" 
d="M88 776h224v-66h-141v-792h141v-66h-224v924z" />
    <glyph glyph-name="backslash" unicode="\" horiz-adv-x="403" 
d="M30 776h76l291 -924h-76z" />
    <glyph glyph-name="bracketright" unicode="]" horiz-adv-x="356" 
d="M44 -82h141v792h-141v66h224v-924h-224v66z" />
    <glyph glyph-name="asciicircum" unicode="^" horiz-adv-x="507" 
d="M211 715h85l167 -307h-84l-127 236l-126 -236h-82z" />
    <glyph glyph-name="underscore" unicode="_" horiz-adv-x="394" 
d="M-1 -92h396v-66h-396v66z" />
    <glyph glyph-name="grave" unicode="`" horiz-adv-x="400" 
d="M73 760h104l62 -147h-62z" />
    <glyph glyph-name="a" unicode="a" horiz-adv-x="540" 
d="M215 -9q-36 0 -68 9t-55.5 28t-37 48t-13.5 69q0 45 22 76t58.5 50t84 27.5t97.5 8.5h75v38q0 63 -26 90.5t-86 27.5q-108 0 -120 -94h-83q4 45 22.5 76t47 50.5t64 28t73.5 8.5q37 0 72 -8.5t61 -30t42 -57.5t16 -91v-345h-83v66q-29 -37 -67 -56t-96 -19zM223 57
q33 0 61.5 8.5t49 24.5t32.5 39.5t12 53.5v65h-72q-39 0 -72.5 -5.5t-58 -17.5t-38 -31.5t-13.5 -48.5q0 -41 22 -64.5t77 -23.5z" />
    <glyph glyph-name="b" unicode="b" horiz-adv-x="627" 
d="M344 -9q-64 0 -109 28t-68 67v-86h-83v773h83v-338q11 19 29.5 36.5t41.5 31t50 21.5t56 8q51 0 95 -18t75.5 -52t49.5 -83t18 -110v-8q0 -60 -17 -109.5t-48 -85.5t-75 -55.5t-98 -19.5zM336 60q78 0 119 50.5t41 146.5v8q0 49 -13 86.5t-34.5 62t-51 37t-62.5 12.5
q-36 0 -67.5 -12t-54.5 -36.5t-36 -62t-13 -87.5v-8q0 -50 12.5 -87t35 -61.5t54.5 -36.5t70 -12z" />
    <glyph glyph-name="c" unicode="c" horiz-adv-x="570" 
d="M301 -9q-55 0 -101.5 18.5t-81 53t-54 83.5t-19.5 110v8q0 60 20 109.5t54.5 84.5t80.5 54.5t99 19.5q41 0 79.5 -10t69 -31.5t51.5 -56.5t27 -85h-82q-10 62 -50.5 88t-94.5 26q-36 0 -66.5 -14t-53 -39.5t-35.5 -62.5t-13 -83v-8q0 -97 47.5 -146.5t123.5 -49.5
q28 0 53.5 8t46 24t34 40t16.5 56h77q-4 -42 -22.5 -78.5t-48.5 -62.5t-70 -41t-87 -15z" />
    <glyph glyph-name="d" unicode="d" horiz-adv-x="627" 
d="M281 -9q-51 0 -94.5 17.5t-75 51t-49 82t-17.5 109.5v8q0 60 18 110t50 86.5t77 56.5t99 20q66 0 107 -27.5t64 -65.5v334h83v-773h-83v90q-11 -19 -30 -37t-42.5 -31.5t-51 -22t-55.5 -8.5zM290 60q36 0 68 12t55 36.5t36.5 62t13.5 87.5v8q0 101 -44.5 149t-121.5 48
q-78 0 -122 -52t-44 -148v-8q0 -50 12.5 -86.5t34 -60.5t50.5 -36t62 -12z" />
    <glyph glyph-name="e" unicode="e" horiz-adv-x="568" 
d="M298 -9q-56 0 -102 19t-80 53.5t-52.5 83.5t-18.5 109v8q0 59 18 108.5t50.5 85t77.5 55t99 19.5q45 0 87.5 -14.5t75.5 -45.5t52.5 -80.5t19.5 -119.5v-27h-394q3 -90 45 -137.5t123 -47.5q123 0 139 91h83q-14 -79 -74 -119.5t-149 -40.5zM440 312q-6 81 -45.5 116
t-104.5 35q-64 0 -104.5 -40.5t-51.5 -110.5h306z" />
    <glyph glyph-name="f" unicode="f" horiz-adv-x="346" 
d="M102 453h-75v70h75v85q0 80 39 124t117 44q20 0 33 -2.5t29 -7.5v-70q-11 5 -26.5 8t-32.5 3q-41 0 -58.5 -25t-17.5 -65v-94h128v-70h-128v-453h-83v453z" />
    <glyph glyph-name="g" unicode="g" horiz-adv-x="627" 
d="M293 -191q-58 0 -100.5 13t-71 34.5t-44.5 51t-21 62.5h85q18 -91 151 -91q77 0 122.5 38.5t45.5 122.5v76q-11 -19 -29.5 -37t-42 -31.5t-50.5 -22t-55 -8.5q-51 0 -95 18.5t-75.5 51.5t-49.5 78.5t-18 99.5v7q0 53 18 100.5t50 83t77 56t99 20.5q66 0 107 -27.5
t64 -65.5v84h83v-488q0 -57 -19 -99.5t-52 -70.5t-78.5 -42t-100.5 -14zM292 86q36 0 67.5 12.5t54.5 36t36 58t13 78.5v7q0 88 -44.5 136.5t-121.5 48.5q-39 0 -70 -14t-52 -38.5t-32.5 -59t-11.5 -75.5v-8q0 -43 13 -76.5t34.5 -57t51 -36t62.5 -12.5z" />
    <glyph glyph-name="h" unicode="h" horiz-adv-x="598" 
d="M84 773h83v-333q18 37 60.5 64.5t107.5 27.5q40 0 74 -11.5t58.5 -37t38 -65.5t13.5 -97v-321h-83v327q0 69 -30 101t-93 32q-29 0 -55.5 -9t-46.5 -27t-32 -45t-12 -62v-317h-83v773z" />
    <glyph glyph-name="i" unicode="i" horiz-adv-x="255" 
d="M86 523h83v-523h-83v523zM126 632q-23 0 -39 16t-16 39t16 39t39 16t39 -16t16 -39t-16 -39t-39 -16z" />
    <glyph glyph-name="j" unicode="j" horiz-adv-x="255" 
d="M9 -121q45 4 61 25t16 56v563h83v-556q0 -75 -36.5 -115t-123.5 -43v70zM126 632q-23 0 -39 16t-16 39t16 39t39 16t39 -16t16 -39t-16 -39t-39 -16z" />
    <glyph glyph-name="k" unicode="k" horiz-adv-x="516" 
d="M84 773h83v-491l217 241h97l-224 -243l243 -280h-101l-232 271v-271h-83v773z" />
    <glyph glyph-name="l" unicode="l" horiz-adv-x="256" 
d="M86 773h84v-773h-84v773z" />
    <glyph glyph-name="m" unicode="m" horiz-adv-x="910" 
d="M84 523h83v-80q18 37 58.5 63t97.5 26q51 0 92 -22.5t61 -75.5q13 25 34 43.5t45 30.5t50 18t50 6q35 0 67 -11t56 -36t38.5 -64.5t14.5 -96.5v-324h-83v330q0 69 -28.5 99.5t-82.5 30.5q-26 0 -50.5 -8.5t-44 -26t-31.5 -44t-12 -61.5v-320h-83v330q0 69 -28.5 99.5
t-82.5 30.5q-26 0 -50.5 -8.5t-44 -26t-31.5 -44t-12 -61.5v-320h-83v523z" />
    <glyph glyph-name="n" unicode="n" horiz-adv-x="598" 
d="M84 523h83v-83q18 37 60.5 64.5t107.5 27.5q40 0 74 -11.5t58.5 -37t38 -65.5t13.5 -97v-321h-83v327q0 69 -30 101t-93 32q-29 0 -55.5 -9t-46.5 -27t-32 -45t-12 -62v-317h-83v523z" />
    <glyph glyph-name="o" unicode="o" horiz-adv-x="604" 
d="M302 60q39 0 71 14t54 40t34 62.5t12 80.5v7q0 45 -12 82t-34.5 63t-54 40t-70.5 14t-71 -14t-54 -40t-34 -62.5t-12 -81.5v-8q0 -90 45.5 -143.5t125.5 -53.5zM301 -9q-56 0 -103 20t-81 55.5t-53 84.5t-19 106v8q0 59 19.5 108t53.5 84.5t81 55t103 19.5
q55 0 102.5 -19.5t81.5 -54.5t53.5 -84t19.5 -108v-8q0 -59 -19.5 -108.5t-54 -84.5t-81.5 -54.5t-103 -19.5z" />
    <glyph glyph-name="p" unicode="p" horiz-adv-x="627" 
d="M84 523h83v-88q11 19 29.5 36.5t41.5 31t50 21.5t56 8q51 0 95 -18t75.5 -52t49.5 -83t18 -110v-8q0 -60 -17 -109.5t-48 -85.5t-75 -55.5t-98 -19.5q-65 0 -109.5 28t-67.5 67v-268h-83v705zM336 60q78 0 119 50.5t41 146.5v8q0 49 -13 86.5t-34.5 62t-51 37t-62.5 12.5
q-36 0 -67.5 -12t-54.5 -36.5t-36 -62t-13 -87.5v-8q0 -50 12.5 -87t35 -61.5t54.5 -36.5t70 -12z" />
    <glyph glyph-name="q" unicode="q" horiz-adv-x="627" 
d="M460 90q-11 -19 -30 -37t-42.5 -31.5t-51 -22t-55.5 -8.5q-51 0 -94.5 17.5t-75 51t-49 82t-17.5 109.5v8q0 60 18 110t50 86.5t77 56.5t99 20q66 0 107 -27.5t64 -65.5v84h83v-705h-83v272zM290 60q36 0 68 12t55 36.5t36.5 62t13.5 87.5v8q0 101 -44.5 149t-121.5 48
q-78 0 -122 -52t-44 -148v-8q0 -50 12.5 -86.5t34 -60.5t50.5 -36t62 -12z" />
    <glyph glyph-name="r" unicode="r" horiz-adv-x="376" 
d="M84 523h83v-94q12 22 27.5 40.5t35.5 32t47 21.5t62 9v-78q-39 -2 -71 -10t-54.5 -27t-34.5 -50.5t-12 -79.5v-287h-83v523z" />
    <glyph glyph-name="s" unicode="s" horiz-adv-x="480" 
d="M246 -9q-94 0 -147.5 44.5t-57.5 125.5h81q5 -47 32.5 -74t90.5 -27q60 0 87 20.5t27 62.5q0 41 -30.5 59t-91.5 29q-51 9 -86 21.5t-56 30.5t-30.5 43t-9.5 59q0 36 16 63.5t41.5 46t57 28t62.5 9.5q35 0 67 -7.5t57.5 -25.5t42.5 -47t22 -71h-80q-9 43 -34.5 62.5
t-75.5 19.5q-45 0 -72 -20.5t-27 -54.5q0 -18 5.5 -30.5t19.5 -22t37.5 -17t59.5 -13.5q40 -8 74 -17.5t58.5 -26t38 -43t13.5 -68.5q0 -72 -48 -115.5t-144 -43.5z" />
    <glyph glyph-name="t" unicode="t" horiz-adv-x="355" 
d="M243 -7q-72 0 -106.5 38t-34.5 100v322h-75v70h75v119h83v-119h122v-70h-122v-314q0 -76 65 -76q20 0 35 3t29 8v-70q-13 -5 -29 -8t-42 -3z" />
    <glyph glyph-name="u" unicode="u" horiz-adv-x="594" 
d="M261 -9q-39 0 -72.5 11t-57.5 35.5t-38 62.5t-14 92v331h83v-327q0 -69 29.5 -101t91.5 -32q28 0 54 9t46 27t32 45t12 62v317h83v-523h-83v83q-18 -37 -60.5 -64.5t-105.5 -27.5z" />
    <glyph glyph-name="v" unicode="v" horiz-adv-x="534" 
d="M25 523h90l155 -439l153 439h86l-188 -523h-106z" />
    <glyph glyph-name="w" unicode="w" horiz-adv-x="794" 
d="M28 523h90l122 -421l127 421h72l119 -421l123 421h85l-163 -523h-92l-109 392l-122 -392h-91z" />
    <glyph glyph-name="x" unicode="x" horiz-adv-x="528" 
d="M215 269l-175 254h97l128 -190l127 190h90l-173 -248l191 -275h-98l-141 211l-144 -211h-89z" />
    <glyph glyph-name="y" unicode="y" horiz-adv-x="529" 
d="M230 54l-205 469h89l160 -375l145 375h85l-289 -705h-84z" />
    <glyph glyph-name="z" unicode="z" horiz-adv-x="483" 
d="M21 12l309 441h-279v70h407v-15l-302 -435h298v-73h-433v12z" />
    <glyph glyph-name="braceleft" unicode="{" horiz-adv-x="381" 
d="M337 -147q-56 0 -97.5 11.5t-67 36t-34.5 64t1 96.5l19 104q4 22 0.5 43.5t-17 38.5t-38.5 27.5t-63 10.5v62q38 0 63 10.5t38.5 27.5t17 38.5t-0.5 43.5l-19 104q-10 57 -1 96.5t34.5 64t67 36t97.5 11.5v-63q-37 0 -62.5 -7t-40.5 -24t-19 -45t3 -71l19 -115
q9 -57 -19 -91t-79 -47q51 -13 79 -47t19 -91l-19 -115q-7 -43 -3 -71t19 -45t40.5 -24t62.5 -7v-63z" />
    <glyph glyph-name="bar" unicode="|" horiz-adv-x="253" 
d="M93 776h67v-924h-67v924z" />
    <glyph glyph-name="braceright" unicode="}" horiz-adv-x="381" 
d="M44 -84q37 0 62.5 7t40.5 24t19 45t-3 71l-19 115q-9 57 19 91t79 47q-51 13 -79 47t-19 91l19 115q7 43 3 71t-19 45t-40.5 24t-62.5 7v63q55 0 97 -11.5t67.5 -36t34.5 -64t-1 -96.5l-19 -104q-4 -22 -0.5 -43.5t17 -38.5t38.5 -27.5t63 -10.5v-62q-38 0 -63 -10.5
t-38.5 -27.5t-17 -38.5t0.5 -43.5l19 -104q10 -57 1 -96.5t-34.5 -64t-67.5 -36t-97 -11.5v63z" />
    <glyph glyph-name="asciitilde" unicode="~" horiz-adv-x="445" 
d="M44 223q3 33 12.5 57t24 39.5t32.5 23.5t37 8q25 0 45 -8t37 -17.5t31.5 -17.5t26.5 -8q16 0 29.5 13t15.5 40h66q-2 -33 -12 -57.5t-24 -40t-31.5 -23t-35.5 -7.5q-26 0 -47 8t-38 17.5t-31 17.5t-26 8q-17 0 -29.5 -13.5t-16.5 -39.5h-66z" />
    <glyph glyph-name="uni00A0" unicode="&#xa0;" horiz-adv-x="280" 
 />
    <glyph glyph-name="exclamdown" unicode="&#xa1;" horiz-adv-x="288" 
d="M111 396h64l14 -513h-92zM144 475q-26 0 -45 18.5t-19 45.5t19 45.5t45 18.5t45 -18.5t19 -45.5t-19 -45.5t-45 -18.5z" />
    <glyph glyph-name="cent" unicode="&#xa2;" horiz-adv-x="565" 
d="M267 -7q-49 5 -89.5 25.5t-70 54.5t-46 80.5t-16.5 102.5v8q0 55 17 101.5t47 81t70.5 56t87.5 27.5v99h59v-99q37 -3 70.5 -14.5t60.5 -33.5t45 -55t24 -78h-82q-8 53 -41 79.5t-77 32.5v-399q24 3 45.5 12.5t38.5 25.5t28 38t14 50h77q-4 -39 -20.5 -73t-43 -60
t-62 -42t-77.5 -20v-128h-59v128zM131 256q0 -86 36.5 -134.5t99.5 -59.5v398q-60 -11 -98 -62.5t-38 -133.5v-8z" />
    <glyph glyph-name="sterling" unicode="&#xa3;" horiz-adv-x="596" 
d="M48 377h65q-8 32 -13 66.5t-5 74.5q0 46 17 84t46.5 65t69.5 42t87 15q97 0 152 -51.5t62 -137.5h-84q-5 28 -14.5 50t-24.5 37t-37.5 23t-53.5 8q-58 0 -95 -37t-37 -99q0 -41 5 -74.5t12 -65.5h213v-62h-199q6 -30 10.5 -62t4.5 -70q0 -34 -13 -65q25 -6 49 -15t46 -18
t41.5 -15t35.5 -6q40 0 64 18.5t27 67.5h73q-5 -69 -44 -114t-110 -45q-33 0 -64 10t-59 21.5t-53 21.5t-46 10q-33 0 -48 -17t-17 -37h-73q1 17 8 36.5t19.5 36.5t31 30.5t44.5 18.5q5 13 8.5 28t3.5 34q0 33 -7 65t-16 66h-82v62z" />
    <glyph glyph-name="yen" unicode="&#xa5;" horiz-adv-x="576" 
d="M84 339h156l-212 376h94l175 -324l167 324h84l-200 -376h157v-58h-168v-78h168v-58h-168v-145h-85v145h-168v58h168v78h-168v58z" />
    <glyph glyph-name="brokenbar" unicode="&#xa6;" horiz-adv-x="260" 
d="M93 297h67v-445h-67v445zM93 776h67v-409h-67v409z" />
    <glyph glyph-name="section" unicode="&#xa7;" horiz-adv-x="539" 
d="M266 -137q-84 0 -135 42.5t-53 120.5h85q4 -43 26 -68t75 -25t77.5 26t24.5 64q0 19 -5.5 34.5t-21.5 28t-43.5 23t-70.5 21.5q-41 10 -75 24t-58 34t-37 47t-13 64q0 50 30 85t83 50q-30 21 -45.5 50.5t-15.5 76.5q0 36 15 65.5t39.5 51.5t56.5 34t67 12
q82 0 131.5 -40.5t51.5 -116.5h-84q-3 40 -23.5 63.5t-73.5 23.5t-76.5 -26.5t-23.5 -64.5q0 -20 5.5 -34.5t20 -27t40.5 -23t68 -20.5q41 -11 76 -23.5t60 -32t39 -47.5t14 -69q0 -43 -28.5 -80t-81.5 -54q29 -21 44 -51.5t15 -75.5q0 -34 -14 -63.5t-38.5 -51.5
t-57.5 -34.5t-70 -12.5zM326 185q46 11 67.5 35t21.5 59q0 22 -8.5 37.5t-24 27t-39 20t-53.5 16.5l-79 21q-39 -8 -63 -33t-24 -62q0 -40 32 -61.5t95 -38.5z" />
    <glyph glyph-name="dieresis" unicode="&#xa8;" horiz-adv-x="400" 
d="M106 634q-22 0 -37.5 15.5t-15.5 37.5t15.5 37.5t37.5 15.5t37.5 -15.5t15.5 -37.5t-15.5 -37.5t-37.5 -15.5zM294 634q-22 0 -37.5 15.5t-15.5 37.5t15.5 37.5t37.5 15.5t37.5 -15.5t15.5 -37.5t-15.5 -37.5t-37.5 -15.5z" />
    <glyph glyph-name="copyright" unicode="&#xa9;" horiz-adv-x="844" 
d="M423 155q-91 0 -141.5 53.5t-50.5 144.5v8q0 45 14.5 81.5t40 62.5t60.5 40.5t77 14.5q34 0 63.5 -8.5t52 -25.5t36.5 -43t17 -61h-76q-12 78 -93 78q-52 0 -82.5 -36.5t-30.5 -102.5v-7q0 -66 29.5 -102t83.5 -36q41 0 68 20.5t33 62.5h72q-8 -72 -55 -108t-118 -36z
M421 33q64 0 122 24t102 67t70 103t26 132q0 71 -25.5 130.5t-69 102t-101 66.5t-122.5 24q-66 0 -124 -24t-101.5 -67t-69 -102.5t-25.5 -131.5t26 -132t70 -102.5t101.5 -66t120.5 -23.5zM421 -9q-76 0 -143 28t-116.5 77.5t-78 116t-28.5 144.5q0 76 28.5 143t78 117
t117 78.5t144.5 28.5q78 0 145 -28.5t116 -78t77 -116t28 -142.5q0 -78 -28.5 -145.5t-78 -117t-117 -77.5t-144.5 -28z" />
    <glyph glyph-name="ordfeminine" unicode="&#xaa;" horiz-adv-x="419" 
d="M170 290q-29 0 -54.5 7.5t-44.5 22.5t-30 38.5t-11 55.5q0 36 17 61t46.5 40.5t68 22.5t80.5 7h58v26q0 47 -19.5 68.5t-65.5 21.5q-42 0 -63.5 -17.5t-26.5 -50.5h-77q3 35 18 60t38 40.5t52.5 23t62.5 7.5t61.5 -7.5t50.5 -25t34.5 -46.5t12.5 -73v-274h-78v52
q-22 -29 -52 -44.5t-78 -15.5zM184 351q50 0 83 24t33 70v46h-56q-60 0 -97.5 -16.5t-37.5 -58.5q0 -31 16.5 -48t58.5 -17z" />
    <glyph glyph-name="guillemotleft" unicode="&#xab;" horiz-adv-x="500" 
d="M59 261l130 178h82l-125 -178l125 -178h-82zM237 261l130 178h82l-125 -178l125 -178h-82z" />
    <glyph glyph-name="uni00AD" unicode="&#xad;" horiz-adv-x="346" 
d="M66 314h214v-78h-214v78z" />
    <glyph glyph-name="registered" unicode="&#xae;" horiz-adv-x="514" 
d="M181 615h77q38 0 61 -16t23 -50v-1q0 -25 -12.5 -39t-32.5 -20l58 -93h-50l-53 85h-23v-85h-48v219zM257 514q38 0 38 32v1q0 17 -10 24t-28 7h-28v-64h28zM257 318q39 0 72 13.5t57.5 38t38.5 58.5t14 75t-13.5 75t-37.5 58.5t-57.5 38t-73.5 13.5t-73.5 -13.5
t-57.5 -38.5t-37.5 -59t-13.5 -75t14 -75t38.5 -58t58 -37.5t71.5 -13.5zM257 282q-46 0 -86.5 17t-70.5 46.5t-47.5 69.5t-17.5 87q0 46 17 86.5t47 70.5t70.5 47.5t87.5 17.5t87.5 -17t70.5 -47t47 -70.5t17 -86.5q0 -47 -17.5 -87.5t-47.5 -70t-70.5 -46.5t-86.5 -17z
" />
    <glyph glyph-name="macron" unicode="&#xaf;" horiz-adv-x="400" 
d="M69 712h262v-64h-262v64z" />
    <glyph glyph-name="degree" unicode="&#xb0;" horiz-adv-x="427" 
d="M214 464q40 0 64.5 29t24.5 71q0 44 -24.5 73t-64.5 29q-41 0 -67 -29t-26 -73q0 -42 26 -71t67 -29zM214 406q-34 0 -64 12.5t-52 34t-35 50.5t-13 61q0 33 13 62t35 51t52 34.5t64 12.5t63.5 -12.5t51.5 -34.5t35 -51t13 -62q0 -32 -13 -61t-35 -50.5t-51.5 -34
t-63.5 -12.5z" />
    <glyph glyph-name="plusminus" unicode="&#xb1;" horiz-adv-x="519" 
d="M223 327h-187v70h187v182h73v-182h187v-70h-187v-182h-73v182zM36 70h447v-70h-447v70z" />
    <glyph glyph-name="twosuperior" unicode="&#xb2;" horiz-adv-x="286" 
d="M2 384l128 136q25 26 39.5 49.5t14.5 47.5q0 23 -13 36.5t-37 13.5q-25 0 -40 -15.5t-20 -50.5h-61q3 57 35.5 87.5t87.5 30.5q54 0 84 -27.5t30 -73.5q0 -34 -18 -63.5t-48 -58.5l-73 -72h142v-51h-251v11z" />
    <glyph glyph-name="threesuperior" unicode="&#xb3;" horiz-adv-x="311" 
d="M152 368q-63 0 -96 30t-35 81h61q3 -26 18.5 -43.5t49.5 -17.5q32 0 47.5 14.5t15.5 39.5q0 54 -60 54h-26v47h25q56 0 56 49q0 20 -13 33.5t-39 13.5t-42.5 -14.5t-19.5 -40.5h-61q3 46 35.5 75.5t88.5 29.5q55 0 85 -26.5t30 -65.5q0 -29 -15.5 -47t-41.5 -27
q30 -7 48.5 -27.5t18.5 -54.5q0 -48 -35 -75.5t-95 -27.5z" />
    <glyph glyph-name="acute" unicode="&#xb4;" horiz-adv-x="400" 
d="M223 760h104l-104 -147h-62z" />
    <glyph glyph-name="paragraph" unicode="&#xb6;" horiz-adv-x="588" 
d="M276 346h-14q-48 0 -87.5 11.5t-68.5 34t-45 56.5t-16 79q0 48 16.5 83t46 58.5t69 35t85.5 11.5h232v-815h-69v758h-81v-758h-68v446z" />
    <glyph glyph-name="periodcentered" unicode="&#xb7;" horiz-adv-x="282" 
d="M141 263q-26 0 -45 18.5t-19 45.5t19 45.5t45 18.5t45 -18.5t19 -45.5t-19 -45.5t-45 -18.5z" />
    <glyph glyph-name="cedilla" unicode="&#xb8;" horiz-adv-x="400" 
d="M208 -214q-44 0 -70.5 23t-29.5 61h54q3 -14 13.5 -25t29.5 -11t29.5 10t10.5 26t-10 25t-26 9q-10 0 -17 -3t-11 -5l-32 28l42 76h53l-29 -53q17 2 34 -1.5t30.5 -13.5t21.5 -26.5t8 -39.5q0 -20 -8 -35t-22 -25t-32.5 -15t-38.5 -5z" />
    <glyph glyph-name="onesuperior" unicode="&#xb9;" horiz-adv-x="231" 
d="M105 649l-81 -54v59l89 61h60v-342h-68v276z" />
    <glyph glyph-name="ordmasculine" unicode="&#xba;" horiz-adv-x="493" 
d="M247 354q60 0 93.5 41t33.5 109v6q0 69 -34 109.5t-93 40.5q-60 0 -94 -40.5t-34 -109.5v-6q0 -69 34 -109.5t94 -40.5zM246 290q-45 0 -83.5 16t-66.5 44t-43.5 67t-15.5 86v6q0 48 16 87.5t44 68t66.5 44t83.5 15.5t83.5 -15.5t66 -43.5t43.5 -67t16 -87v-6
q0 -48 -16 -88t-44 -68t-66.5 -43.5t-83.5 -15.5z" />
    <glyph glyph-name="guillemotright" unicode="&#xbb;" horiz-adv-x="500" 
d="M176 261l-125 178h82l130 -178l-130 -178h-82zM354 261l-125 178h82l130 -178l-130 -178h-82z" />
    <glyph glyph-name="onequarter" unicode="&#xbc;" horiz-adv-x="678" 
d="M108 649l-81 -54v59l89 61h60v-342h-68v276zM556 715h66l-507 -715h-66zM546 69h-172v24l153 249h83v-224h45v-49h-45v-69h-64v69zM547 118v173l-101 -173h101z" />
    <glyph glyph-name="onehalf" unicode="&#xbd;" horiz-adv-x="683" 
d="M108 649l-81 -54v59l89 61h60v-342h-68v276zM543 715h66l-507 -715h-66zM395 11l128 136q25 26 39.5 49.5t14.5 47.5q0 23 -13 36.5t-37 13.5q-25 0 -40 -15.5t-20 -50.5h-61q3 57 35.5 87.5t87.5 30.5q54 0 84 -27.5t30 -73.5q0 -34 -18 -63.5t-48 -58.5l-73 -72h142
v-51h-251v11z" />
    <glyph glyph-name="threequarters" unicode="&#xbe;" horiz-adv-x="681" 
d="M149 368q-63 0 -96 30t-35 81h61q3 -26 18.5 -43.5t49.5 -17.5q32 0 47.5 14.5t15.5 39.5q0 54 -60 54h-26v47h25q56 0 56 49q0 20 -13 33.5t-39 13.5t-42.5 -14.5t-19.5 -40.5h-61q3 46 35.5 75.5t88.5 29.5q55 0 85 -26.5t30 -65.5q0 -29 -15.5 -47t-41.5 -27
q30 -7 48.5 -27.5t18.5 -54.5q0 -48 -35 -75.5t-95 -27.5zM586 715h66l-507 -715h-66zM540 69h-172v24l153 249h83v-224h45v-49h-45v-69h-64v69zM541 118v173l-101 -173h101z" />
    <glyph glyph-name="questiondown" unicode="&#xbf;" horiz-adv-x="489" 
d="M310 346q0 -30 -9 -55t-23.5 -47t-33 -41t-37.5 -37q-29 -29 -51 -58t-22 -65q0 -45 25.5 -72.5t81.5 -27.5q57 0 92.5 35t40.5 95h78q-3 -44 -19 -80.5t-44 -63t-65.5 -41t-83.5 -14.5q-51 0 -87 14t-59 37.5t-33.5 53t-10.5 61.5q0 28 8.5 51t22.5 43t31.5 38t35.5 35
q17 16 33 32.5t28 34t19.5 37t7.5 42.5v43h74v-50zM275 603q26 0 45 -18.5t19 -45.5t-19 -45.5t-45 -18.5t-45 18.5t-19 45.5t19 45.5t45 18.5z" />
    <glyph glyph-name="Agrave" unicode="&#xc0;" horiz-adv-x="674" 
d="M276 715h114l242 -715h-86l-70 206h-295l-69 -206h-82zM205 275h248l-124 368zM208 898h104l56 -127h-62z" />
    <glyph glyph-name="Aacute" unicode="&#xc1;" horiz-adv-x="674" 
d="M282 715h114l242 -715h-86l-70 206h-295l-69 -206h-82zM211 275h248l-124 368zM356 898h104l-98 -127h-62z" />
    <glyph glyph-name="Acircumflex" unicode="&#xc2;" horiz-adv-x="674" 
d="M282 715h114l242 -715h-86l-70 206h-295l-69 -206h-82zM211 275h248l-124 368zM300 898h75l107 -127h-61l-85 58l-85 -58h-59z" />
    <glyph glyph-name="Atilde" unicode="&#xc3;" horiz-adv-x="674" 
d="M282 715h114l242 -715h-86l-70 206h-295l-69 -206h-82zM211 275h248l-124 368zM391 774q-16 0 -31 6.5t-28.5 15t-25.5 15t-23 6.5q-14 0 -25 -12.5t-15 -32.5h-60q6 54 34 85t67 31q16 0 30.5 -6.5t28 -15t25.5 -15t23 -6.5q14 0 25 12.5t15 32.5h60q-6 -54 -34 -85
t-66 -31z" />
    <glyph glyph-name="Adieresis" unicode="&#xc4;" horiz-adv-x="674" 
d="M282 715h114l242 -715h-86l-70 206h-295l-69 -206h-82zM211 275h248l-124 368zM235 789q-22 0 -37.5 15.5t-15.5 37.5t15.5 37.5t37.5 15.5t37.5 -15.5t15.5 -37.5t-15.5 -37.5t-37.5 -15.5zM438 789q-22 0 -37.5 15.5t-15.5 37.5t15.5 37.5t37.5 15.5t37.5 -15.5
t15.5 -37.5t-15.5 -37.5t-37.5 -15.5z" />
    <glyph glyph-name="Aring" unicode="&#xc5;" horiz-adv-x="674" 
d="M276 715h114l242 -715h-86l-70 206h-295l-69 -206h-82zM205 275h248l-124 368zM331 805q23 0 38 16.5t15 41.5t-15 41.5t-38 16.5t-38 -16.5t-15 -41.5t15 -41.5t38 -16.5zM331 759q-22 0 -41.5 8t-34 22.5t-23 33.5t-8.5 40t8.5 40t23 33.5t34 22.5t41.5 8t41.5 -8
t34 -22.5t23 -33.5t8.5 -40t-8.5 -40t-23 -33.5t-34 -22.5t-41.5 -8z" />
    <glyph glyph-name="AE" unicode="&#xc6;" horiz-adv-x="950" 
d="M399 715h492v-71h-330v-243h266v-71h-266v-259h348v-71h-435v207h-252l-105 -207h-88zM256 275h218v369h-31z" />
    <glyph glyph-name="Ccedilla" unicode="&#xc7;" horiz-adv-x="730" 
d="M381 -214q-44 0 -70.5 23t-29.5 61h54q3 -14 13.5 -25t29.5 -11t29.5 10t10.5 26t-10 25t-26 9q-10 0 -17 -3t-11 -5l-32 28l37 68q-71 5 -127.5 32.5t-95.5 74t-60 111t-21 143.5v8q0 79 25 146t70 116t106.5 76t134.5 27q56 0 106 -15t89 -44t64 -73t31 -102h-86
q-14 82 -62.5 123.5t-140.5 41.5q-56 0 -101.5 -21t-77.5 -59t-50 -93t-18 -122v-8q0 -68 17 -122.5t48.5 -92t77 -57.5t103.5 -20q88 0 145 43.5t71 131.5h81q-18 -118 -91 -179t-185 -66l-24 -45q17 2 34 -1.5t30.5 -13.5t21.5 -26.5t8 -39.5q0 -20 -8 -35t-22 -25
t-32.5 -15t-38.5 -5z" />
    <glyph glyph-name="Egrave" unicode="&#xc8;" horiz-adv-x="566" 
d="M90 715h417v-71h-330v-243h266v-71h-266v-259h348v-71h-435v715zM183 898h104l56 -127h-62z" />
    <glyph glyph-name="Eacute" unicode="&#xc9;" horiz-adv-x="566" 
d="M90 715h417v-71h-330v-243h266v-71h-266v-259h348v-71h-435v715zM325 898h104l-98 -127h-62z" />
    <glyph glyph-name="Ecircumflex" unicode="&#xca;" horiz-adv-x="566" 
d="M90 715h417v-71h-330v-243h266v-71h-266v-259h348v-71h-435v715zM269 898h75l107 -127h-61l-85 58l-85 -58h-59z" />
    <glyph glyph-name="Edieresis" unicode="&#xcb;" horiz-adv-x="566" 
d="M90 715h417v-71h-330v-243h266v-71h-266v-259h348v-71h-435v715zM204 789q-22 0 -37.5 15.5t-15.5 37.5t15.5 37.5t37.5 15.5t37.5 -15.5t15.5 -37.5t-15.5 -37.5t-37.5 -15.5zM407 789q-22 0 -37.5 15.5t-15.5 37.5t15.5 37.5t37.5 15.5t37.5 -15.5t15.5 -37.5
t-15.5 -37.5t-37.5 -15.5z" />
    <glyph glyph-name="Igrave" unicode="&#xcc;" horiz-adv-x="271" 
d="M89 715h87v-715h-87v715zM9 898h104l56 -127h-62z" />
    <glyph glyph-name="Iacute" unicode="&#xcd;" horiz-adv-x="277" 
d="M95 715h87v-715h-87v715zM157 898h104l-98 -127h-62z" />
    <glyph glyph-name="Icircumflex" unicode="&#xce;" horiz-adv-x="277" 
d="M89 715h87v-715h-87v715zM95 898h75l107 -127h-61l-85 58l-85 -58h-59z" />
    <glyph glyph-name="Idieresis" unicode="&#xcf;" horiz-adv-x="277" 
d="M95 715h87v-715h-87v715zM36 789q-22 0 -37.5 15.5t-15.5 37.5t15.5 37.5t37.5 15.5t37.5 -15.5t15.5 -37.5t-15.5 -37.5t-37.5 -15.5zM239 789q-22 0 -37.5 15.5t-15.5 37.5t15.5 37.5t37.5 15.5t37.5 -15.5t15.5 -37.5t-15.5 -37.5t-37.5 -15.5z" />
    <glyph glyph-name="Eth" unicode="&#xd0;" horiz-adv-x="716" 
d="M34 392h76v323h189q92 0 160 -27t113 -74t67 -111t22 -139v-9q0 -74 -21.5 -139t-66.5 -113t-113.5 -75.5t-162.5 -27.5h-187v325h-76v67zM295 71q69 0 120.5 20t86 57t52 89.5t17.5 118.5v8q0 62 -15.5 113.5t-49 89t-86 58t-126.5 20.5h-97v-253h207v-67h-207v-254h98z
" />
    <glyph glyph-name="Ntilde" unicode="&#xd1;" horiz-adv-x="724" 
d="M84 715h113l348 -591v591h83v-715h-100l-361 613v-613h-83v715zM420 774q-16 0 -31 6.5t-28.5 15t-25.5 15t-23 6.5q-14 0 -25 -12.5t-15 -32.5h-60q6 54 34 85t67 31q16 0 30.5 -6.5t28 -15t25.5 -15t23 -6.5q14 0 25 12.5t15 32.5h60q-6 -54 -34 -85t-66 -31z" />
    <glyph glyph-name="Ograve" unicode="&#xd2;" horiz-adv-x="811" 
d="M409 63q60 0 107.5 21.5t80.5 60t51 92.5t18 119v8q0 60 -17.5 113t-50.5 92t-81 62t-110 23t-111 -21.5t-82.5 -60.5t-51 -92.5t-17.5 -117.5v-8q0 -65 20.5 -118.5t56 -92t83.5 -59.5t104 -21zM409 -9q-79 0 -144.5 28.5t-112 77.5t-72 115t-25.5 141v8
q0 76 25.5 142.5t72 115.5t111 77t143.5 28t143 -28t110 -77t71 -115t25 -141v-8q0 -76 -25 -142t-70.5 -115.5t-109.5 -78t-142 -28.5zM282 898h104l56 -127h-62z" />
    <glyph glyph-name="Oacute" unicode="&#xd3;" horiz-adv-x="811" 
d="M403 63q60 0 107.5 21.5t80.5 60t51 92.5t18 119v8q0 60 -17.5 113t-50.5 92t-81 62t-110 23t-111 -21.5t-82.5 -60.5t-51 -92.5t-17.5 -117.5v-8q0 -65 20.5 -118.5t56 -92t83.5 -59.5t104 -21zM403 -9q-79 0 -144.5 28.5t-112 77.5t-72 115t-25.5 141v8
q0 76 25.5 142.5t72 115.5t111 77t143.5 28t143 -28t110 -77t71 -115t25 -141v-8q0 -76 -25 -142t-70.5 -115.5t-109.5 -78t-142 -28.5zM418 898h104l-98 -127h-62z" />
    <glyph glyph-name="Ocircumflex" unicode="&#xd4;" horiz-adv-x="811" 
d="M403 63q60 0 107.5 21.5t80.5 60t51 92.5t18 119v8q0 60 -17.5 113t-50.5 92t-81 62t-110 23t-111 -21.5t-82.5 -60.5t-51 -92.5t-17.5 -117.5v-8q0 -65 20.5 -118.5t56 -92t83.5 -59.5t104 -21zM403 -9q-79 0 -144.5 28.5t-112 77.5t-72 115t-25.5 141v8
q0 76 25.5 142.5t72 115.5t111 77t143.5 28t143 -28t110 -77t71 -115t25 -141v-8q0 -76 -25 -142t-70.5 -115.5t-109.5 -78t-142 -28.5zM362 898h75l107 -127h-61l-85 58l-85 -58h-59z" />
    <glyph glyph-name="Otilde" unicode="&#xd5;" horiz-adv-x="811" 
d="M403 63q60 0 107.5 21.5t80.5 60t51 92.5t18 119v8q0 60 -17.5 113t-50.5 92t-81 62t-110 23t-111 -21.5t-82.5 -60.5t-51 -92.5t-17.5 -117.5v-8q0 -65 20.5 -118.5t56 -92t83.5 -59.5t104 -21zM403 -9q-79 0 -144.5 28.5t-112 77.5t-72 115t-25.5 141v8
q0 76 25.5 142.5t72 115.5t111 77t143.5 28t143 -28t110 -77t71 -115t25 -141v-8q0 -76 -25 -142t-70.5 -115.5t-109.5 -78t-142 -28.5zM453 774q-16 0 -31 6.5t-28.5 15t-25.5 15t-23 6.5q-14 0 -25 -12.5t-15 -32.5h-60q6 54 34 85t67 31q16 0 30.5 -6.5t28 -15t25.5 -15
t23 -6.5q14 0 25 12.5t15 32.5h60q-6 -54 -34 -85t-66 -31z" />
    <glyph glyph-name="Odieresis" unicode="&#xd6;" horiz-adv-x="811" 
d="M403 63q60 0 107.5 21.5t80.5 60t51 92.5t18 119v8q0 60 -17.5 113t-50.5 92t-81 62t-110 23t-111 -21.5t-82.5 -60.5t-51 -92.5t-17.5 -117.5v-8q0 -65 20.5 -118.5t56 -92t83.5 -59.5t104 -21zM403 -9q-79 0 -144.5 28.5t-112 77.5t-72 115t-25.5 141v8
q0 76 25.5 142.5t72 115.5t111 77t143.5 28t143 -28t110 -77t71 -115t25 -141v-8q0 -76 -25 -142t-70.5 -115.5t-109.5 -78t-142 -28.5zM297 789q-22 0 -37.5 15.5t-15.5 37.5t15.5 37.5t37.5 15.5t37.5 -15.5t15.5 -37.5t-15.5 -37.5t-37.5 -15.5zM500 789
q-22 0 -37.5 15.5t-15.5 37.5t15.5 37.5t37.5 15.5t37.5 -15.5t15.5 -37.5t-15.5 -37.5t-37.5 -15.5z" />
    <glyph glyph-name="multiply" unicode="&#xd7;" horiz-adv-x="469" 
d="M33 179l154 154l-154 154l47 48l154 -155l154 155l48 -48l-154 -154l154 -154l-48 -48l-154 155l-154 -155z" />
    <glyph glyph-name="Oslash" unicode="&#xd8;" horiz-adv-x="811" 
d="M35 12l98 107q-38 48 -58 107.5t-20 126.5v8q0 76 25.5 142.5t72 115.5t111 77t143.5 28q63 0 117 -18.5t97 -51.5l81 88l45 -45l-79 -87q42 -48 65 -111.5t23 -135.5v-8q0 -76 -25 -142t-70.5 -115.5t-109.5 -78t-142 -28.5q-69 0 -128 22t-104 60l-97 -106zM409 63
q60 0 107.5 21.5t80.5 60t51 92.5t18 119v8q0 112 -52 188l-384 -421q35 -34 80.5 -51t98.5 -17zM145 354q0 -52 11.5 -95t32.5 -78l382 418q-32 26 -72.5 40.5t-91.5 14.5q-62 0 -111 -21.5t-82.5 -60.5t-51 -92.5t-17.5 -117.5v-8z" />
    <glyph glyph-name="Ugrave" unicode="&#xd9;" horiz-adv-x="696" 
d="M335 -9q-124 0 -190.5 69.5t-66.5 200.5v454h87v-444q0 -56 10 -95.5t31 -64.5t53.5 -36.5t77.5 -11.5q43 0 76.5 10t57 35t36 67.5t12.5 108.5v431h87v-443q0 -131 -66.5 -206t-204.5 -75zM219 898h104l56 -127h-62z" />
    <glyph glyph-name="Uacute" unicode="&#xda;" horiz-adv-x="696" 
d="M335 -9q-124 0 -190.5 69.5t-66.5 200.5v454h87v-444q0 -56 10 -95.5t31 -64.5t53.5 -36.5t77.5 -11.5q43 0 76.5 10t57 35t36 67.5t12.5 108.5v431h87v-443q0 -131 -66.5 -206t-204.5 -75zM361 898h104l-98 -127h-62z" />
    <glyph glyph-name="Ucircumflex" unicode="&#xdb;" horiz-adv-x="696" 
d="M335 -9q-124 0 -190.5 69.5t-66.5 200.5v454h87v-444q0 -56 10 -95.5t31 -64.5t53.5 -36.5t77.5 -11.5q43 0 76.5 10t57 35t36 67.5t12.5 108.5v431h87v-443q0 -131 -66.5 -206t-204.5 -75zM305 898h75l107 -127h-61l-85 58l-85 -58h-59z" />
    <glyph glyph-name="Udieresis" unicode="&#xdc;" horiz-adv-x="696" 
d="M335 -9q-124 0 -190.5 69.5t-66.5 200.5v454h87v-444q0 -56 10 -95.5t31 -64.5t53.5 -36.5t77.5 -11.5q43 0 76.5 10t57 35t36 67.5t12.5 108.5v431h87v-443q0 -131 -66.5 -206t-204.5 -75zM240 789q-22 0 -37.5 15.5t-15.5 37.5t15.5 37.5t37.5 15.5t37.5 -15.5
t15.5 -37.5t-15.5 -37.5t-37.5 -15.5zM443 789q-22 0 -37.5 15.5t-15.5 37.5t15.5 37.5t37.5 15.5t37.5 -15.5t15.5 -37.5t-15.5 -37.5t-37.5 -15.5z" />
    <glyph glyph-name="Yacute" unicode="&#xdd;" horiz-adv-x="598" 
d="M256 312l-239 403h98l187 -332l180 332h87l-226 -404v-311h-87v312zM312 898h104l-98 -127h-62z" />
    <glyph glyph-name="Thorn" unicode="&#xde;" horiz-adv-x="581" 
d="M90 715h87v-134h116q51 0 96.5 -11t79.5 -35.5t54 -63.5t20 -95v-4q0 -57 -20 -96.5t-54 -64t-79.5 -35.5t-96.5 -11h-116v-165h-87v715zM299 234q77 0 117 34.5t40 103.5v4q0 38 -11 64t-31 41.5t-49.5 22.5t-65.5 7h-122v-277h122z" />
    <glyph glyph-name="germandbls" unicode="&#xdf;" horiz-adv-x="590" 
d="M335 -9q-32 0 -56.5 5.5t-35.5 10.5v71q14 -7 36.5 -12.5t51.5 -5.5q23 0 46 6t42 22.5t30.5 45.5t11.5 76v7q0 40 -14 73t-39.5 56t-61.5 34.5t-81 10.5v71q42 -1 71 10.5t46 31t24.5 43t7.5 46.5v4q0 54 -31 82.5t-91 28.5q-57 0 -91 -37.5t-34 -100.5v-570h-83v566
q0 48 17 87t45.5 66t66.5 42t80 15q45 0 81.5 -13t63 -36.5t41 -56.5t14.5 -73v-4q0 -24 -7.5 -48.5t-22.5 -46t-37.5 -39t-51.5 -27.5q39 -10 70.5 -30t54.5 -48t35.5 -62.5t12.5 -73.5v-6q0 -63 -18 -105.5t-47.5 -68t-68 -36.5t-78.5 -11z" />
    <glyph glyph-name="agrave" unicode="&#xe0;" horiz-adv-x="540" 
d="M215 -9q-36 0 -68 9t-55.5 28t-37 48t-13.5 69q0 45 22 76t58.5 50t84 27.5t97.5 8.5h75v38q0 63 -26 90.5t-86 27.5q-108 0 -120 -94h-83q4 45 22.5 76t47 50.5t64 28t73.5 8.5q37 0 72 -8.5t61 -30t42 -57.5t16 -91v-345h-83v66q-29 -37 -67 -56t-96 -19zM223 57
q33 0 61.5 8.5t49 24.5t32.5 39.5t12 53.5v65h-72q-39 0 -72.5 -5.5t-58 -17.5t-38 -31.5t-13.5 -48.5q0 -41 22 -64.5t77 -23.5zM142 760h104l62 -147h-62z" />
    <glyph glyph-name="aacute" unicode="&#xe1;" horiz-adv-x="540" 
d="M215 -9q-36 0 -68 9t-55.5 28t-37 48t-13.5 69q0 45 22 76t58.5 50t84 27.5t97.5 8.5h75v38q0 63 -26 90.5t-86 27.5q-108 0 -120 -94h-83q4 45 22.5 76t47 50.5t64 28t73.5 8.5q37 0 72 -8.5t61 -30t42 -57.5t16 -91v-345h-83v66q-29 -37 -67 -56t-96 -19zM223 57
q33 0 61.5 8.5t49 24.5t32.5 39.5t12 53.5v65h-72q-39 0 -72.5 -5.5t-58 -17.5t-38 -31.5t-13.5 -48.5q0 -41 22 -64.5t77 -23.5zM296 760h104l-104 -147h-62z" />
    <glyph glyph-name="acircumflex" unicode="&#xe2;" horiz-adv-x="540" 
d="M209 -9q-36 0 -68 9t-55.5 28t-37 48t-13.5 69q0 45 22 76t58.5 50t84 27.5t97.5 8.5h75v38q0 63 -26 90.5t-86 27.5q-108 0 -120 -94h-83q4 45 22.5 76t47 50.5t64 28t73.5 8.5q37 0 72 -8.5t61 -30t42 -57.5t16 -91v-345h-83v66q-29 -37 -67 -56t-96 -19zM217 57
q33 0 61.5 8.5t49 24.5t32.5 39.5t12 53.5v65h-72q-39 0 -72.5 -5.5t-58 -17.5t-38 -31.5t-13.5 -48.5q0 -41 22 -64.5t77 -23.5zM217 757h75l107 -144h-61l-85 75l-85 -75h-59z" />
    <glyph glyph-name="atilde" unicode="&#xe3;" horiz-adv-x="540" 
d="M215 -9q-36 0 -68 9t-55.5 28t-37 48t-13.5 69q0 45 22 76t58.5 50t84 27.5t97.5 8.5h75v38q0 63 -26 90.5t-86 27.5q-108 0 -120 -94h-83q4 45 22.5 76t47 50.5t64 28t73.5 8.5q37 0 72 -8.5t61 -30t42 -57.5t16 -91v-345h-83v66q-29 -37 -67 -56t-96 -19zM223 57
q33 0 61.5 8.5t49 24.5t32.5 39.5t12 53.5v65h-72q-39 0 -72.5 -5.5t-58 -17.5t-38 -31.5t-13.5 -48.5q0 -41 22 -64.5t77 -23.5zM325 619q-16 0 -31 6.5t-28.5 15t-25.5 15t-23 6.5q-14 0 -25 -12.5t-15 -32.5h-60q6 54 34 85t67 31q16 0 30.5 -6.5t28 -15t25.5 -15
t23 -6.5q14 0 25 12.5t15 32.5h60q-6 -54 -34 -85t-66 -31z" />
    <glyph glyph-name="adieresis" unicode="&#xe4;" horiz-adv-x="540" 
d="M215 -9q-36 0 -68 9t-55.5 28t-37 48t-13.5 69q0 45 22 76t58.5 50t84 27.5t97.5 8.5h75v38q0 63 -26 90.5t-86 27.5q-108 0 -120 -94h-83q4 45 22.5 76t47 50.5t64 28t73.5 8.5q37 0 72 -8.5t61 -30t42 -57.5t16 -91v-345h-83v66q-29 -37 -67 -56t-96 -19zM223 57
q33 0 61.5 8.5t49 24.5t32.5 39.5t12 53.5v65h-72q-39 0 -72.5 -5.5t-58 -17.5t-38 -31.5t-13.5 -48.5q0 -41 22 -64.5t77 -23.5zM177 634q-22 0 -37.5 15.5t-15.5 37.5t15.5 37.5t37.5 15.5t37.5 -15.5t15.5 -37.5t-15.5 -37.5t-37.5 -15.5zM365 634q-22 0 -37.5 15.5
t-15.5 37.5t15.5 37.5t37.5 15.5t37.5 -15.5t15.5 -37.5t-15.5 -37.5t-37.5 -15.5z" />
    <glyph glyph-name="aring" unicode="&#xe5;" horiz-adv-x="540" 
d="M209 -9q-36 0 -68 9t-55.5 28t-37 48t-13.5 69q0 45 22 76t58.5 50t84 27.5t97.5 8.5h75v38q0 63 -26 90.5t-86 27.5q-108 0 -120 -94h-83q4 45 22.5 76t47 50.5t64 28t73.5 8.5q37 0 72 -8.5t61 -30t42 -57.5t16 -91v-345h-83v66q-29 -37 -67 -56t-96 -19zM217 57
q33 0 61.5 8.5t49 24.5t32.5 39.5t12 53.5v65h-72q-39 0 -72.5 -5.5t-58 -17.5t-38 -31.5t-13.5 -48.5q0 -41 22 -64.5t77 -23.5zM265 644q23 0 38 16.5t15 41.5t-15 41.5t-38 16.5t-38 -16.5t-15 -41.5t15 -41.5t38 -16.5zM265 598q-22 0 -41.5 8t-34 22.5t-23 33.5
t-8.5 40t8.5 40t23 33.5t34 22.5t41.5 8t41.5 -8t34 -22.5t23 -33.5t8.5 -40t-8.5 -40t-23 -33.5t-34 -22.5t-41.5 -8z" />
    <glyph glyph-name="ae" unicode="&#xe6;" horiz-adv-x="880" 
d="M616 -9q-66 0 -116.5 28.5t-80.5 79.5q-36 -57 -84 -82.5t-120 -25.5q-36 0 -68 9t-55.5 28t-37 48t-13.5 69q0 46 21.5 77.5t57.5 51t83 28t97 8.5h78v34q0 63 -27 91t-85 28q-108 0 -120 -94h-83q4 45 22.5 76t47 50.5t64 28t73.5 8.5q52 0 96.5 -19.5t67.5 -69.5
q30 42 74.5 65.5t101.5 23.5q43 0 84 -14t73 -45t51 -80.5t19 -120.5v-25h-379q3 -90 42 -138.5t117 -48.5q117 0 133 91h83q-14 -79 -73 -119.5t-144 -40.5zM223 57q33 0 61.5 8.5t49 24.5t32.5 39.5t12 53.5v64h-75q-39 0 -72 -5t-57 -17t-37 -31.5t-13 -48.5
q0 -41 22 -64.5t77 -23.5zM752 310q-6 83 -42.5 118t-99.5 35q-61 0 -100 -41t-49 -112h291z" />
    <glyph glyph-name="ccedilla" unicode="&#xe7;" horiz-adv-x="570" 
d="M286 -214q-44 0 -70.5 23t-29.5 61h54q3 -14 13.5 -25t29.5 -11t29.5 10t10.5 26t-10 25t-26 9q-10 0 -17 -3t-11 -5l-32 28l38 69q-48 6 -88.5 26.5t-69.5 54.5t-45.5 80t-16.5 102v8q0 60 20 109.5t54.5 84.5t80.5 54.5t99 19.5q41 0 79.5 -10t69 -31.5t51.5 -56.5
t27 -85h-82q-10 62 -50.5 88t-94.5 26q-36 0 -66.5 -14t-53 -39.5t-35.5 -62.5t-13 -83v-8q0 -97 47.5 -146.5t123.5 -49.5q28 0 53.5 8t46 24t34 40t16.5 56h77q-4 -41 -21 -75.5t-45 -60.5t-65 -41.5t-81 -18.5l-24 -45q17 2 34 -1.5t30.5 -13.5t21.5 -26.5t8 -39.5
q0 -20 -8 -35t-22 -25t-32.5 -15t-38.5 -5z" />
    <glyph glyph-name="egrave" unicode="&#xe8;" horiz-adv-x="568" 
d="M292 -9q-56 0 -102 19t-80 53.5t-52.5 83.5t-18.5 109v8q0 59 18 108.5t50.5 85t77.5 55t99 19.5q45 0 87.5 -14.5t75.5 -45.5t52.5 -80.5t19.5 -119.5v-27h-394q3 -90 45 -137.5t123 -47.5q123 0 139 91h83q-14 -79 -74 -119.5t-149 -40.5zM434 312q-6 81 -45.5 116
t-104.5 35q-64 0 -104.5 -40.5t-51.5 -110.5h306zM155 760h104l62 -147h-62z" />
    <glyph glyph-name="eacute" unicode="&#xe9;" horiz-adv-x="568" 
d="M292 -9q-56 0 -102 19t-80 53.5t-52.5 83.5t-18.5 109v8q0 59 18 108.5t50.5 85t77.5 55t99 19.5q45 0 87.5 -14.5t75.5 -45.5t52.5 -80.5t19.5 -119.5v-27h-394q3 -90 45 -137.5t123 -47.5q123 0 139 91h83q-14 -79 -74 -119.5t-149 -40.5zM434 312q-6 81 -45.5 116
t-104.5 35q-64 0 -104.5 -40.5t-51.5 -110.5h306zM309 760h104l-104 -147h-62z" />
    <glyph glyph-name="ecircumflex" unicode="&#xea;" horiz-adv-x="568" 
d="M292 -9q-56 0 -102 19t-80 53.5t-52.5 83.5t-18.5 109v8q0 59 18 108.5t50.5 85t77.5 55t99 19.5q45 0 87.5 -14.5t75.5 -45.5t52.5 -80.5t19.5 -119.5v-27h-394q3 -90 45 -137.5t123 -47.5q123 0 139 91h83q-14 -79 -74 -119.5t-149 -40.5zM434 312q-6 81 -45.5 116
t-104.5 35q-64 0 -104.5 -40.5t-51.5 -110.5h306zM247 757h75l107 -144h-61l-85 75l-85 -75h-59z" />
    <glyph glyph-name="edieresis" unicode="&#xeb;" horiz-adv-x="568" 
d="M292 -9q-56 0 -102 19t-80 53.5t-52.5 83.5t-18.5 109v8q0 59 18 108.5t50.5 85t77.5 55t99 19.5q45 0 87.5 -14.5t75.5 -45.5t52.5 -80.5t19.5 -119.5v-27h-394q3 -90 45 -137.5t123 -47.5q123 0 139 91h83q-14 -79 -74 -119.5t-149 -40.5zM434 312q-6 81 -45.5 116
t-104.5 35q-64 0 -104.5 -40.5t-51.5 -110.5h306zM190 634q-22 0 -37.5 15.5t-15.5 37.5t15.5 37.5t37.5 15.5t37.5 -15.5t15.5 -37.5t-15.5 -37.5t-37.5 -15.5zM378 634q-22 0 -37.5 15.5t-15.5 37.5t15.5 37.5t37.5 15.5t37.5 -15.5t15.5 -37.5t-15.5 -37.5t-37.5 -15.5z
" />
    <glyph glyph-name="igrave" unicode="&#xec;" horiz-adv-x="255" 
d="M86 523h83v-523h-83v523zM-2 760h104l62 -147h-62z" />
    <glyph glyph-name="iacute" unicode="&#xed;" horiz-adv-x="261" 
d="M86 523h83v-523h-83v523zM152 760h104l-104 -147h-62z" />
    <glyph glyph-name="icircumflex" unicode="&#xee;" horiz-adv-x="255" 
d="M80 523h83v-523h-83v523zM84 757h75l107 -144h-61l-85 75l-85 -75h-59z" />
    <glyph glyph-name="idieresis" unicode="&#xef;" horiz-adv-x="255" 
d="M37 634q-22 0 -37.5 15.5t-15.5 37.5t15.5 37.5t37.5 15.5t37.5 -15.5t15.5 -37.5t-15.5 -37.5t-37.5 -15.5zM217 634q-22 0 -37.5 15.5t-15.5 37.5t15.5 37.5t37.5 15.5t37.5 -15.5t15.5 -37.5t-15.5 -37.5t-37.5 -15.5zM86 523h83v-523h-83v523z" />
    <glyph glyph-name="eth" unicode="&#xf0;" horiz-adv-x="604" 
d="M156 621l97 57q-30 26 -61.5 50t-62.5 45h107q19 -11 40 -24.5t44 -30.5l83 49l29 -49l-67 -39q37 -35 72 -77.5t62 -93t43.5 -107t16.5 -117.5v-22q0 -59 -19.5 -109t-54 -86t-81.5 -56t-103 -20t-103 20t-81 55.5t-53 84.5t-19 106v8q0 59 19 108t52 84.5t76 55
t91 19.5q52 0 89 -20.5t62 -51.5q-24 48 -59.5 93t-77.5 86l-112 -66zM302 60q39 0 71 14t54 40t34 62.5t12 80.5v7q0 45 -12 82t-34 63t-53.5 40t-70.5 14t-71 -14t-54.5 -40t-34.5 -62.5t-12 -81.5v-8q0 -90 45.5 -143.5t125.5 -53.5z" />
    <glyph glyph-name="ntilde" unicode="&#xf1;" horiz-adv-x="598" 
d="M78 523h83v-83q18 37 60.5 64.5t107.5 27.5q40 0 74 -11.5t58.5 -37t38 -65.5t13.5 -97v-321h-83v327q0 69 -30 101t-93 32q-29 0 -55.5 -9t-46.5 -27t-32 -45t-12 -62v-317h-83v523zM346 619q-16 0 -31 6.5t-28.5 15t-25.5 15t-23 6.5q-14 0 -25 -12.5t-15 -32.5h-60
q6 54 34 85t67 31q16 0 30.5 -6.5t28 -15t25.5 -15t23 -6.5q14 0 25 12.5t15 32.5h60q-6 -54 -34 -85t-66 -31z" />
    <glyph glyph-name="ograve" unicode="&#xf2;" horiz-adv-x="604" 
d="M296 60q39 0 71 14t54 40t34 62.5t12 80.5v7q0 45 -12 82t-34.5 63t-54 40t-70.5 14t-71 -14t-54 -40t-34 -62.5t-12 -81.5v-8q0 -90 45.5 -143.5t125.5 -53.5zM295 -9q-56 0 -103 20t-81 55.5t-53 84.5t-19 106v8q0 59 19.5 108t53.5 84.5t81 55t103 19.5
q55 0 102.5 -19.5t81.5 -54.5t53.5 -84t19.5 -108v-8q0 -59 -19.5 -108.5t-54 -84.5t-81.5 -54.5t-103 -19.5zM167 760h104l62 -147h-62z" />
    <glyph glyph-name="oacute" unicode="&#xf3;" horiz-adv-x="604" 
d="M296 60q39 0 71 14t54 40t34 62.5t12 80.5v7q0 45 -12 82t-34.5 63t-54 40t-70.5 14t-71 -14t-54 -40t-34 -62.5t-12 -81.5v-8q0 -90 45.5 -143.5t125.5 -53.5zM295 -9q-56 0 -103 20t-81 55.5t-53 84.5t-19 106v8q0 59 19.5 108t53.5 84.5t81 55t103 19.5
q55 0 102.5 -19.5t81.5 -54.5t53.5 -84t19.5 -108v-8q0 -59 -19.5 -108.5t-54 -84.5t-81.5 -54.5t-103 -19.5zM321 760h104l-104 -147h-62z" />
    <glyph glyph-name="ocircumflex" unicode="&#xf4;" horiz-adv-x="604" 
d="M296 60q39 0 71 14t54 40t34 62.5t12 80.5v7q0 45 -12 82t-34.5 63t-54 40t-70.5 14t-71 -14t-54 -40t-34 -62.5t-12 -81.5v-8q0 -90 45.5 -143.5t125.5 -53.5zM295 -9q-56 0 -103 20t-81 55.5t-53 84.5t-19 106v8q0 59 19.5 108t53.5 84.5t81 55t103 19.5
q55 0 102.5 -19.5t81.5 -54.5t53.5 -84t19.5 -108v-8q0 -59 -19.5 -108.5t-54 -84.5t-81.5 -54.5t-103 -19.5zM259 757h75l107 -144h-61l-85 75l-85 -75h-59z" />
    <glyph glyph-name="otilde" unicode="&#xf5;" horiz-adv-x="604" 
d="M296 60q39 0 71 14t54 40t34 62.5t12 80.5v7q0 45 -12 82t-34.5 63t-54 40t-70.5 14t-71 -14t-54 -40t-34 -62.5t-12 -81.5v-8q0 -90 45.5 -143.5t125.5 -53.5zM295 -9q-56 0 -103 20t-81 55.5t-53 84.5t-19 106v8q0 59 19.5 108t53.5 84.5t81 55t103 19.5
q55 0 102.5 -19.5t81.5 -54.5t53.5 -84t19.5 -108v-8q0 -59 -19.5 -108.5t-54 -84.5t-81.5 -54.5t-103 -19.5zM350 619q-16 0 -31 6.5t-28.5 15t-25.5 15t-23 6.5q-14 0 -25 -12.5t-15 -32.5h-60q6 54 34 85t67 31q16 0 30.5 -6.5t28 -15t25.5 -15t23 -6.5q14 0 25 12.5
t15 32.5h60q-6 -54 -34 -85t-66 -31z" />
    <glyph glyph-name="odieresis" unicode="&#xf6;" horiz-adv-x="604" 
d="M296 60q39 0 71 14t54 40t34 62.5t12 80.5v7q0 45 -12 82t-34.5 63t-54 40t-70.5 14t-71 -14t-54 -40t-34 -62.5t-12 -81.5v-8q0 -90 45.5 -143.5t125.5 -53.5zM295 -9q-56 0 -103 20t-81 55.5t-53 84.5t-19 106v8q0 59 19.5 108t53.5 84.5t81 55t103 19.5
q55 0 102.5 -19.5t81.5 -54.5t53.5 -84t19.5 -108v-8q0 -59 -19.5 -108.5t-54 -84.5t-81.5 -54.5t-103 -19.5zM202 634q-22 0 -37.5 15.5t-15.5 37.5t15.5 37.5t37.5 15.5t37.5 -15.5t15.5 -37.5t-15.5 -37.5t-37.5 -15.5zM390 634q-22 0 -37.5 15.5t-15.5 37.5t15.5 37.5
t37.5 15.5t37.5 -15.5t15.5 -37.5t-15.5 -37.5t-37.5 -15.5z" />
    <glyph glyph-name="divide" unicode="&#xf7;" horiz-adv-x="519" 
d="M259 89q-26 0 -45 18.5t-19 45.5t19 45.5t45 18.5t45 -18.5t19 -45.5t-19 -45.5t-45 -18.5zM36 377h447v-70h-447v70zM259 467q-26 0 -45 18.5t-19 45.5t19 45.5t45 18.5t45 -18.5t19 -45.5t-19 -45.5t-45 -18.5z" />
    <glyph glyph-name="oslash" unicode="&#xf8;" horiz-adv-x="604" 
d="M23 1l77 85q-26 34 -40.5 77t-14.5 94v8q0 59 19.5 108t53.5 84.5t81 55t103 19.5q45 0 84.5 -13t71.5 -37l68 74l44 -38l-70 -77q28 -35 43.5 -79t15.5 -96v-8q0 -59 -19.5 -108.5t-54 -84.5t-81.5 -54.5t-103 -19.5q-48 0 -88 14t-72 40l-74 -82zM302 60q39 0 71 14
t54 40t34 62.5t12 80.5v7q0 35 -7 64t-20 53l-256 -281q45 -40 112 -40zM131 257q0 -65 24 -111l253 280q-43 37 -106 37q-39 0 -71 -14t-54 -40t-34 -62.5t-12 -81.5v-8z" />
    <glyph glyph-name="ugrave" unicode="&#xf9;" horiz-adv-x="594" 
d="M255 -9q-39 0 -72.5 11t-57.5 35.5t-38 62.5t-14 92v331h83v-327q0 -69 29.5 -101t91.5 -32q28 0 54 9t46 27t32 45t12 62v317h83v-523h-83v83q-18 -37 -60.5 -64.5t-105.5 -27.5zM162 760h104l62 -147h-62z" />
    <glyph glyph-name="uacute" unicode="&#xfa;" horiz-adv-x="594" 
d="M255 -9q-39 0 -72.5 11t-57.5 35.5t-38 62.5t-14 92v331h83v-327q0 -69 29.5 -101t91.5 -32q28 0 54 9t46 27t32 45t12 62v317h83v-523h-83v83q-18 -37 -60.5 -64.5t-105.5 -27.5zM316 760h104l-104 -147h-62z" />
    <glyph glyph-name="ucircumflex" unicode="&#xfb;" horiz-adv-x="594" 
d="M255 -9q-39 0 -72.5 11t-57.5 35.5t-38 62.5t-14 92v331h83v-327q0 -69 29.5 -101t91.5 -32q28 0 54 9t46 27t32 45t12 62v317h83v-523h-83v83q-18 -37 -60.5 -64.5t-105.5 -27.5zM254 757h75l107 -144h-61l-85 75l-85 -75h-59z" />
    <glyph glyph-name="udieresis" unicode="&#xfc;" horiz-adv-x="594" 
d="M255 -9q-39 0 -72.5 11t-57.5 35.5t-38 62.5t-14 92v331h83v-327q0 -69 29.5 -101t91.5 -32q28 0 54 9t46 27t32 45t12 62v317h83v-523h-83v83q-18 -37 -60.5 -64.5t-105.5 -27.5zM197 634q-22 0 -37.5 15.5t-15.5 37.5t15.5 37.5t37.5 15.5t37.5 -15.5t15.5 -37.5
t-15.5 -37.5t-37.5 -15.5zM385 634q-22 0 -37.5 15.5t-15.5 37.5t15.5 37.5t37.5 15.5t37.5 -15.5t15.5 -37.5t-15.5 -37.5t-37.5 -15.5z" />
    <glyph glyph-name="yacute" unicode="&#xfd;" horiz-adv-x="529" 
d="M230 54l-205 469h89l160 -375l145 375h85l-289 -705h-84zM297 760h104l-104 -147h-62z" />
    <glyph glyph-name="thorn" unicode="&#xfe;" horiz-adv-x="627" 
d="M84 773h83v-338q11 19 29.5 36.5t41.5 31t50 21.5t56 8q51 0 95 -18t75.5 -52t49.5 -83t18 -110v-8q0 -60 -17 -109.5t-48 -85.5t-75 -55.5t-98 -19.5q-65 0 -109.5 28t-67.5 67v-268h-83v955zM336 60q78 0 119 50.5t41 146.5v8q0 49 -13 86.5t-34.5 62t-51 37
t-62.5 12.5q-36 0 -67.5 -12t-54.5 -36.5t-36 -62t-13 -87.5v-8q0 -50 12.5 -87t35 -61.5t54.5 -36.5t70 -12z" />
    <glyph glyph-name="ydieresis" unicode="&#xff;" horiz-adv-x="529" 
d="M224 54l-205 469h89l160 -375l145 375h85l-289 -705h-84zM172 634q-22 0 -37.5 15.5t-15.5 37.5t15.5 37.5t37.5 15.5t37.5 -15.5t15.5 -37.5t-15.5 -37.5t-37.5 -15.5zM360 634q-22 0 -37.5 15.5t-15.5 37.5t15.5 37.5t37.5 15.5t37.5 -15.5t15.5 -37.5t-15.5 -37.5
t-37.5 -15.5z" />
    <glyph glyph-name="Amacron" unicode="&#x100;" horiz-adv-x="674" 
d="M282 715h114l242 -715h-86l-70 206h-295l-69 -206h-82zM211 275h248l-124 368zM204 850h266v-64h-266v64z" />
    <glyph glyph-name="amacron" unicode="&#x101;" horiz-adv-x="540" 
d="M209 -9q-36 0 -68 9t-55.5 28t-37 48t-13.5 69q0 45 22 76t58.5 50t84 27.5t97.5 8.5h75v38q0 63 -26 90.5t-86 27.5q-108 0 -120 -94h-83q4 45 22.5 76t47 50.5t64 28t73.5 8.5q37 0 72 -8.5t61 -30t42 -57.5t16 -91v-345h-83v66q-29 -37 -67 -56t-96 -19zM217 57
q33 0 61.5 8.5t49 24.5t32.5 39.5t12 53.5v65h-72q-39 0 -72.5 -5.5t-58 -17.5t-38 -31.5t-13.5 -48.5q0 -41 22 -64.5t77 -23.5zM134 712h262v-64h-262v64z" />
    <glyph glyph-name="Abreve" unicode="&#x102;" horiz-adv-x="674" 
d="M276 715h114l242 -715h-86l-70 206h-295l-69 -206h-82zM205 275h248l-124 368zM329 767q-27 0 -50.5 10t-41 27.5t-28.5 41.5t-12 53h66q5 -29 20.5 -46.5t45.5 -17.5q32 0 49 17t23 47h64q-2 -29 -13 -53t-29.5 -41.5t-42.5 -27.5t-51 -10z" />
    <glyph glyph-name="abreve" unicode="&#x103;" horiz-adv-x="540" 
d="M215 -9q-36 0 -68 9t-55.5 28t-37 48t-13.5 69q0 45 22 76t58.5 50t84 27.5t97.5 8.5h75v38q0 63 -26 90.5t-86 27.5q-108 0 -120 -94h-83q4 45 22.5 76t47 50.5t64 28t73.5 8.5q37 0 72 -8.5t61 -30t42 -57.5t16 -91v-345h-83v66q-29 -37 -67 -56t-96 -19zM223 57
q33 0 61.5 8.5t49 24.5t32.5 39.5t12 53.5v65h-72q-39 0 -72.5 -5.5t-58 -17.5t-38 -31.5t-13.5 -48.5q0 -41 22 -64.5t77 -23.5zM269 619q-27 0 -50.5 10t-41 27.5t-28.5 41.5t-12 53h66q5 -29 20.5 -46.5t45.5 -17.5q32 0 49 17t23 47h64q-2 -29 -13 -53t-29.5 -41.5
t-42.5 -27.5t-51 -10z" />
    <glyph glyph-name="Aogonek" unicode="&#x104;" horiz-adv-x="674" 
d="M585 -182q-47 0 -75.5 21t-28.5 59q0 31 21 57t51 42l-71 209h-295l-69 -206h-82l246 715h114l241 -712q-42 -24 -59.5 -45t-17.5 -44q0 -36 38 -36q13 0 27 2.5t25 8.5v-59q-13 -5 -28.5 -8.5t-36.5 -3.5zM211 275h248l-124 368z" />
    <glyph glyph-name="aogonek" unicode="&#x105;" horiz-adv-x="540" 
d="M407 -182q-47 0 -75.5 21t-28.5 59q0 32 21.5 58t53.5 43v67q-29 -37 -67 -56t-96 -19q-36 0 -68 9t-55.5 28t-37 48t-13.5 69q0 45 22 76t58.5 50t84 27.5t97.5 8.5h75v38q0 63 -26 90.5t-86 27.5q-108 0 -120 -94h-83q4 45 22.5 76t47 50.5t64 28t73.5 8.5
q37 0 72 -8.5t61 -30t42 -57.5t16 -91v-341q-79 -45 -79 -90q0 -36 38 -36q13 0 27 2.5t25 8.5v-59q-13 -5 -28.5 -8.5t-36.5 -3.5zM223 57q33 0 61.5 8.5t49 24.5t32.5 39.5t12 53.5v65h-72q-39 0 -72.5 -5.5t-58 -17.5t-38 -31.5t-13.5 -48.5q0 -41 22 -64.5t77 -23.5z
" />
    <glyph glyph-name="Cacute" unicode="&#x106;" horiz-adv-x="730" 
d="M383 -9q-78 0 -139.5 25.5t-105 73t-66.5 114t-23 149.5v8q0 79 25 146t70 116t106.5 76t134.5 27q56 0 106 -15t89 -44t64 -73t31 -102h-86q-14 82 -62.5 123.5t-140.5 41.5q-56 0 -101.5 -21t-77.5 -59t-50 -93t-18 -122v-8q0 -68 17 -122.5t48.5 -92t77 -57.5
t103.5 -20q88 0 145 43.5t71 131.5h81q-19 -124 -99 -185t-200 -61zM406 898h104l-98 -127h-62z" />
    <glyph glyph-name="cacute" unicode="&#x107;" horiz-adv-x="570" 
d="M295 -9q-55 0 -101.5 18.5t-81 53t-54 83.5t-19.5 110v8q0 60 20 109.5t54.5 84.5t80.5 54.5t99 19.5q41 0 79.5 -10t69 -31.5t51.5 -56.5t27 -85h-82q-10 62 -50.5 88t-94.5 26q-36 0 -66.5 -14t-53 -39.5t-35.5 -62.5t-13 -83v-8q0 -97 47.5 -146.5t123.5 -49.5
q28 0 53.5 8t46 24t34 40t16.5 56h77q-4 -42 -22.5 -78.5t-48.5 -62.5t-70 -41t-87 -15zM317 760h104l-104 -147h-62z" />
    <glyph glyph-name="Ccircumflex" unicode="&#x108;" horiz-adv-x="730" 
d="M389 -9q-78 0 -139.5 25.5t-105 73t-66.5 114t-23 149.5v8q0 79 25 146t70 116t106.5 76t134.5 27q56 0 106 -15t89 -44t64 -73t31 -102h-86q-14 82 -62.5 123.5t-140.5 41.5q-56 0 -101.5 -21t-77.5 -59t-50 -93t-18 -122v-8q0 -68 17 -122.5t48.5 -92t77 -57.5
t103.5 -20q88 0 145 43.5t71 131.5h81q-19 -124 -99 -185t-200 -61zM356 898h75l107 -127h-61l-85 58l-85 -58h-59z" />
    <glyph glyph-name="ccircumflex" unicode="&#x109;" horiz-adv-x="570" 
d="M295 -9q-55 0 -101.5 18.5t-81 53t-54 83.5t-19.5 110v8q0 60 20 109.5t54.5 84.5t80.5 54.5t99 19.5q41 0 79.5 -10t69 -31.5t51.5 -56.5t27 -85h-82q-10 62 -50.5 88t-94.5 26q-36 0 -66.5 -14t-53 -39.5t-35.5 -62.5t-13 -83v-8q0 -97 47.5 -146.5t123.5 -49.5
q28 0 53.5 8t46 24t34 40t16.5 56h77q-4 -42 -22.5 -78.5t-48.5 -62.5t-70 -41t-87 -15zM255 757h75l107 -144h-61l-85 75l-85 -75h-59z" />
    <glyph glyph-name="Cdotaccent" unicode="&#x10a;" horiz-adv-x="730" 
d="M383 -9q-78 0 -139.5 25.5t-105 73t-66.5 114t-23 149.5v8q0 79 25 146t70 116t106.5 76t134.5 27q56 0 106 -15t89 -44t64 -73t31 -102h-86q-14 82 -62.5 123.5t-140.5 41.5q-56 0 -101.5 -21t-77.5 -59t-50 -93t-18 -122v-8q0 -68 17 -122.5t48.5 -92t77 -57.5
t103.5 -20q88 0 145 43.5t71 131.5h81q-19 -124 -99 -185t-200 -61zM383 787q-23 0 -39 16t-16 39t16 39t39 16t39 -16t16 -39t-16 -39t-39 -16z" />
    <glyph glyph-name="cdotaccent" unicode="&#x10b;" horiz-adv-x="570" 
d="M295 -9q-55 0 -101.5 18.5t-81 53t-54 83.5t-19.5 110v8q0 60 20 109.5t54.5 84.5t80.5 54.5t99 19.5q41 0 79.5 -10t69 -31.5t51.5 -56.5t27 -85h-82q-10 62 -50.5 88t-94.5 26q-36 0 -66.5 -14t-53 -39.5t-35.5 -62.5t-13 -83v-8q0 -97 47.5 -146.5t123.5 -49.5
q28 0 53.5 8t46 24t34 40t16.5 56h77q-4 -42 -22.5 -78.5t-48.5 -62.5t-70 -41t-87 -15zM292 632q-23 0 -39 16t-16 39t16 39t39 16t39 -16t16 -39t-16 -39t-39 -16z" />
    <glyph glyph-name="Ccaron" unicode="&#x10c;" horiz-adv-x="730" 
d="M383 -9q-78 0 -139.5 25.5t-105 73t-66.5 114t-23 149.5v8q0 79 25 146t70 116t106.5 76t134.5 27q56 0 106 -15t89 -44t64 -73t31 -102h-86q-14 82 -62.5 123.5t-140.5 41.5q-56 0 -101.5 -21t-77.5 -59t-50 -93t-18 -122v-8q0 -68 17 -122.5t48.5 -92t77 -57.5
t103.5 -20q88 0 145 43.5t71 131.5h81q-19 -124 -99 -185t-200 -61zM242 898h61l85 -58l85 58h59l-108 -127h-75z" />
    <glyph glyph-name="ccaron" unicode="&#x10d;" horiz-adv-x="570" 
d="M295 -9q-55 0 -101.5 18.5t-81 53t-54 83.5t-19.5 110v8q0 60 20 109.5t54.5 84.5t80.5 54.5t99 19.5q41 0 79.5 -10t69 -31.5t51.5 -56.5t27 -85h-82q-10 62 -50.5 88t-94.5 26q-36 0 -66.5 -14t-53 -39.5t-35.5 -62.5t-13 -83v-8q0 -97 47.5 -146.5t123.5 -49.5
q28 0 53.5 8t46 24t34 40t16.5 56h77q-4 -42 -22.5 -78.5t-48.5 -62.5t-70 -41t-87 -15zM147 757h61l85 -75l85 75h59l-108 -144h-75z" />
    <glyph glyph-name="Dcaron" unicode="&#x10e;" horiz-adv-x="696" 
d="M269 71q69 0 120.5 20t86 57t52 89.5t17.5 118.5v8q0 62 -15.5 113.5t-49 89t-86 58t-126.5 20.5h-97v-574h98zM84 715h189q92 0 160 -27t113 -74t67 -111t22 -139v-9q0 -74 -21.5 -139t-66.5 -113t-113.5 -75.5t-162.5 -27.5h-187v715zM165 898h61l85 -58l85 58h59
l-108 -127h-75z" />
    <glyph glyph-name="dcaron" unicode="&#x10f;" horiz-adv-x="621" 
d="M275 -9q-51 0 -94.5 17.5t-75 51t-49 82t-17.5 109.5v8q0 60 18 110t50 86.5t77 56.5t99 20q66 0 107 -27.5t64 -65.5v334h83v-773h-83v90q-11 -19 -30 -37t-42.5 -31.5t-51 -22t-55.5 -8.5zM284 60q36 0 68 12t55 36.5t36.5 62t13.5 87.5v8q0 101 -44.5 149t-121.5 48
q-78 0 -122 -52t-44 -148v-8q0 -50 12.5 -86.5t34 -60.5t50.5 -36t62 -12zM597 773h94l-48 -175h-58z" />
    <glyph glyph-name="Dcroat" unicode="&#x110;" horiz-adv-x="716" 
d="M34 392h76v323h189q92 0 160 -27t113 -74t67 -111t22 -139v-9q0 -74 -21.5 -139t-66.5 -113t-113.5 -75.5t-162.5 -27.5h-187v325h-76v67zM295 71q69 0 120.5 20t86 57t52 89.5t17.5 118.5v8q0 62 -15.5 113.5t-49 89t-86 58t-126.5 20.5h-97v-253h207v-67h-207v-254h98z
" />
    <glyph glyph-name="dcroat" unicode="&#x111;" horiz-adv-x="627" 
d="M282 676h178v97h83v-97h75v-61h-75v-615h-83v90q-11 -19 -30 -37t-42.5 -31.5t-51 -22t-55.5 -8.5q-51 0 -94.5 17.5t-75 51t-49 82t-17.5 109.5v8q0 60 18 110t50 86.5t77 56.5t99 20q66 0 107 -27.5t64 -65.5v176h-178v61zM290 60q36 0 68 12t55 36.5t36.5 62
t13.5 87.5v8q0 101 -44.5 149t-121.5 48q-78 0 -122 -52t-44 -148v-8q0 -50 12.5 -86.5t34 -60.5t50.5 -36t62 -12z" />
    <glyph glyph-name="Emacron" unicode="&#x112;" horiz-adv-x="566" 
d="M90 715h417v-71h-330v-243h266v-71h-266v-259h348v-71h-435v715zM173 850h266v-64h-266v64z" />
    <glyph glyph-name="emacron" unicode="&#x113;" horiz-adv-x="568" 
d="M292 -9q-56 0 -102 19t-80 53.5t-52.5 83.5t-18.5 109v8q0 59 18 108.5t50.5 85t77.5 55t99 19.5q45 0 87.5 -14.5t75.5 -45.5t52.5 -80.5t19.5 -119.5v-27h-394q3 -90 45 -137.5t123 -47.5q123 0 139 91h83q-14 -79 -74 -119.5t-149 -40.5zM434 312q-6 81 -45.5 116
t-104.5 35q-64 0 -104.5 -40.5t-51.5 -110.5h306zM153 712h262v-64h-262v64z" />
    <glyph glyph-name="Ebreve" unicode="&#x114;" horiz-adv-x="566" 
d="M90 715h417v-71h-330v-243h266v-71h-266v-259h348v-71h-435v715zM311 767q-27 0 -50.5 10t-41 27.5t-28.5 41.5t-12 53h66q5 -29 20.5 -46.5t45.5 -17.5q32 0 49 17t23 47h64q-2 -29 -13 -53t-29.5 -41.5t-42.5 -27.5t-51 -10z" />
    <glyph glyph-name="ebreve" unicode="&#x115;" horiz-adv-x="568" 
d="M292 -9q-56 0 -102 19t-80 53.5t-52.5 83.5t-18.5 109v8q0 59 18 108.5t50.5 85t77.5 55t99 19.5q45 0 87.5 -14.5t75.5 -45.5t52.5 -80.5t19.5 -119.5v-27h-394q3 -90 45 -137.5t123 -47.5q123 0 139 91h83q-14 -79 -74 -119.5t-149 -40.5zM434 312q-6 81 -45.5 116
t-104.5 35q-64 0 -104.5 -40.5t-51.5 -110.5h306zM274 619q-27 0 -50.5 10t-41 27.5t-28.5 41.5t-12 53h66q5 -29 20.5 -46.5t45.5 -17.5q32 0 49 17t23 47h64q-2 -29 -13 -53t-29.5 -41.5t-42.5 -27.5t-51 -10z" />
    <glyph glyph-name="Edotaccent" unicode="&#x116;" horiz-adv-x="566" 
d="M84 715h417v-71h-330v-243h266v-71h-266v-259h348v-71h-435v715zM300 787q-23 0 -39 16t-16 39t16 39t39 16t39 -16t16 -39t-16 -39t-39 -16z" />
    <glyph glyph-name="edotaccent" unicode="&#x117;" horiz-adv-x="568" 
d="M292 -9q-56 0 -102 19t-80 53.5t-52.5 83.5t-18.5 109v8q0 59 18 108.5t50.5 85t77.5 55t99 19.5q45 0 87.5 -14.5t75.5 -45.5t52.5 -80.5t19.5 -119.5v-27h-394q3 -90 45 -137.5t123 -47.5q123 0 139 91h83q-14 -79 -74 -119.5t-149 -40.5zM434 312q-6 81 -45.5 116
t-104.5 35q-64 0 -104.5 -40.5t-51.5 -110.5h306zM284 632q-23 0 -39 16t-16 39t16 39t39 16t39 -16t16 -39t-16 -39t-39 -16z" />
    <glyph glyph-name="Eogonek" unicode="&#x118;" horiz-adv-x="566" 
d="M454 -182q-47 0 -75.5 21t-28.5 59q0 32 23 59t55 43h-338v715h417v-71h-330v-243h266v-71h-266v-259h348v-71h-28q-34 -23 -51 -43t-17 -43q0 -36 38 -36q13 0 27 2.5t25 8.5v-59q-13 -5 -28.5 -8.5t-36.5 -3.5z" />
    <glyph glyph-name="eogonek" unicode="&#x119;" horiz-adv-x="568" 
d="M388 -182q-47 0 -75.5 21t-28.5 59q0 30 20 55.5t49 41.5q-14 -2 -27.5 -3t-27.5 -1q-56 0 -102 19t-80 53.5t-52.5 83.5t-18.5 109v8q0 59 18 108.5t50.5 85t77.5 55t99 19.5q45 0 87.5 -14.5t75.5 -45.5t52.5 -80.5t19.5 -119.5v-27h-394q3 -90 45 -137.5t123 -47.5
q123 0 139 91h83q-5 -30 -16.5 -53t-24.5 -39.5t-26.5 -28t-23.5 -19.5q-29 -25 -48 -49.5t-19 -47.5q0 -36 38 -36q13 0 27 2.5t25 8.5v-59q-13 -5 -28.5 -8.5t-36.5 -3.5zM440 312q-6 81 -45.5 116t-104.5 35q-64 0 -104.5 -40.5t-51.5 -110.5h306z" />
    <glyph glyph-name="Ecaron" unicode="&#x11a;" horiz-adv-x="566" 
d="M90 715h417v-71h-330v-243h266v-71h-266v-259h348v-71h-435v715zM165 898h61l85 -58l85 58h59l-108 -127h-75z" />
    <glyph glyph-name="ecaron" unicode="&#x11b;" horiz-adv-x="568" 
d="M292 -9q-56 0 -102 19t-80 53.5t-52.5 83.5t-18.5 109v8q0 59 18 108.5t50.5 85t77.5 55t99 19.5q45 0 87.5 -14.5t75.5 -45.5t52.5 -80.5t19.5 -119.5v-27h-394q3 -90 45 -137.5t123 -47.5q123 0 139 91h83q-14 -79 -74 -119.5t-149 -40.5zM434 312q-6 81 -45.5 116
t-104.5 35q-64 0 -104.5 -40.5t-51.5 -110.5h306zM139 757h61l85 -75l85 75h59l-108 -144h-75z" />
    <glyph glyph-name="Gcircumflex" unicode="&#x11c;" horiz-adv-x="767" 
d="M395 -9q-83 0 -147 27t-108.5 75.5t-67.5 115t-23 144.5v8q0 78 25 145t71 116t109.5 76.5t140.5 27.5q53 0 102 -13t88.5 -40.5t66 -70.5t34.5 -103h-87q-15 85 -69.5 121.5t-132.5 36.5q-62 0 -110 -21.5t-81 -60.5t-50 -93t-17 -120v-8q0 -66 16.5 -120.5t48.5 -92.5
t80 -59t111 -21q58 0 100 18t69.5 48.5t41 72t14.5 89.5h-209v72h294v-53q0 -78 -22.5 -137t-63.5 -99t-98 -60.5t-126 -20.5zM352 898h75l107 -127h-61l-85 58l-85 -58h-59z" />
    <glyph glyph-name="gcircumflex" unicode="&#x11d;" horiz-adv-x="627" 
d="M287 -191q-58 0 -100.5 13t-71 34.5t-44.5 51t-21 62.5h85q18 -91 151 -91q77 0 122.5 38.5t45.5 122.5v76q-11 -19 -29.5 -37t-42 -31.5t-50.5 -22t-55 -8.5q-51 0 -95 18.5t-75.5 51.5t-49.5 78.5t-18 99.5v7q0 53 18 100.5t50 83t77 56t99 20.5q66 0 107 -27.5
t64 -65.5v84h83v-488q0 -57 -19 -99.5t-52 -70.5t-78.5 -42t-100.5 -14zM286 86q36 0 67.5 12.5t54.5 36t36 58t13 78.5v7q0 88 -44.5 136.5t-121.5 48.5q-39 0 -70 -14t-52 -38.5t-32.5 -59t-11.5 -75.5v-8q0 -43 13 -76.5t34.5 -57t51 -36t62.5 -12.5zM251 757h75
l107 -144h-61l-85 75l-85 -75h-59z" />
    <glyph glyph-name="Gbreve" unicode="&#x11e;" horiz-adv-x="767" 
d="M395 -9q-83 0 -147 27t-108.5 75.5t-67.5 115t-23 144.5v8q0 78 25 145t71 116t109.5 76.5t140.5 27.5q53 0 102 -13t88.5 -40.5t66 -70.5t34.5 -103h-87q-15 85 -69.5 121.5t-132.5 36.5q-62 0 -110 -21.5t-81 -60.5t-50 -93t-17 -120v-8q0 -66 16.5 -120.5t48.5 -92.5
t80 -59t111 -21q58 0 100 18t69.5 48.5t41 72t14.5 89.5h-209v72h294v-53q0 -78 -22.5 -137t-63.5 -99t-98 -60.5t-126 -20.5zM387 767q-27 0 -50.5 10t-41 27.5t-28.5 41.5t-12 53h66q5 -29 20.5 -46.5t45.5 -17.5q32 0 49 17t23 47h64q-2 -29 -13 -53t-29.5 -41.5
t-42.5 -27.5t-51 -10z" />
    <glyph glyph-name="gbreve" unicode="&#x11f;" horiz-adv-x="627" 
d="M293 -191q-58 0 -100.5 13t-71 34.5t-44.5 51t-21 62.5h85q18 -91 151 -91q77 0 122.5 38.5t45.5 122.5v76q-11 -19 -29.5 -37t-42 -31.5t-50.5 -22t-55 -8.5q-51 0 -95 18.5t-75.5 51.5t-49.5 78.5t-18 99.5v7q0 53 18 100.5t50 83t77 56t99 20.5q66 0 107 -27.5
t64 -65.5v84h83v-488q0 -57 -19 -99.5t-52 -70.5t-78.5 -42t-100.5 -14zM292 86q36 0 67.5 12.5t54.5 36t36 58t13 78.5v7q0 88 -44.5 136.5t-121.5 48.5q-39 0 -70 -14t-52 -38.5t-32.5 -59t-11.5 -75.5v-8q0 -43 13 -76.5t34.5 -57t51 -36t62.5 -12.5zM292 619
q-27 0 -50.5 10t-41 27.5t-28.5 41.5t-12 53h66q5 -29 20.5 -46.5t45.5 -17.5q32 0 49 17t23 47h64q-2 -29 -13 -53t-29.5 -41.5t-42.5 -27.5t-51 -10z" />
    <glyph glyph-name="Gdotaccent" unicode="&#x120;" horiz-adv-x="767" 
d="M395 -9q-83 0 -147 27t-108.5 75.5t-67.5 115t-23 144.5v8q0 78 25 145t71 116t109.5 76.5t140.5 27.5q53 0 102 -13t88.5 -40.5t66 -70.5t34.5 -103h-87q-15 85 -69.5 121.5t-132.5 36.5q-62 0 -110 -21.5t-81 -60.5t-50 -93t-17 -120v-8q0 -66 16.5 -120.5t48.5 -92.5
t80 -59t111 -21q58 0 100 18t69.5 48.5t41 72t14.5 89.5h-209v72h294v-53q0 -78 -22.5 -137t-63.5 -99t-98 -60.5t-126 -20.5zM389 787q-23 0 -39 16t-16 39t16 39t39 16t39 -16t16 -39t-16 -39t-39 -16z" />
    <glyph glyph-name="gdotaccent" unicode="&#x121;" horiz-adv-x="627" 
d="M293 -191q-58 0 -100.5 13t-71 34.5t-44.5 51t-21 62.5h85q18 -91 151 -91q77 0 122.5 38.5t45.5 122.5v76q-11 -19 -29.5 -37t-42 -31.5t-50.5 -22t-55 -8.5q-51 0 -95 18.5t-75.5 51.5t-49.5 78.5t-18 99.5v7q0 53 18 100.5t50 83t77 56t99 20.5q66 0 107 -27.5
t64 -65.5v84h83v-488q0 -57 -19 -99.5t-52 -70.5t-78.5 -42t-100.5 -14zM292 86q36 0 67.5 12.5t54.5 36t36 58t13 78.5v7q0 88 -44.5 136.5t-121.5 48.5q-39 0 -70 -14t-52 -38.5t-32.5 -59t-11.5 -75.5v-8q0 -43 13 -76.5t34.5 -57t51 -36t62.5 -12.5zM294 632
q-23 0 -39 16t-16 39t16 39t39 16t39 -16t16 -39t-16 -39t-39 -16z" />
    <glyph glyph-name="uni0122" unicode="&#x122;" horiz-adv-x="767" 
d="M401 -9q-83 0 -147 27t-108.5 75.5t-67.5 115t-23 144.5v8q0 78 25 145t71 116t109.5 76.5t140.5 27.5q53 0 102 -13t88.5 -40.5t66 -70.5t34.5 -103h-87q-15 85 -69.5 121.5t-132.5 36.5q-62 0 -110 -21.5t-81 -60.5t-50 -93t-17 -120v-8q0 -66 16.5 -120.5t48.5 -92.5
t80 -59t111 -21q58 0 100 18t69.5 48.5t41 72t14.5 89.5h-209v72h294v-53q0 -78 -22.5 -137t-63.5 -99t-98 -60.5t-126 -20.5zM317 -194l58 157l80 -24l-87 -159z" />
    <glyph glyph-name="uni0123" unicode="&#x123;" horiz-adv-x="627" 
d="M293 -191q-58 0 -100.5 13t-71 34.5t-44.5 51t-21 62.5h85q18 -91 151 -91q77 0 122.5 38.5t45.5 122.5v76q-11 -19 -29.5 -37t-42 -31.5t-50.5 -22t-55 -8.5q-51 0 -95 18.5t-75.5 51.5t-49.5 78.5t-18 99.5v7q0 53 18 100.5t50 83t77 56t99 20.5q66 0 107 -27.5
t64 -65.5v84h83v-488q0 -57 -19 -99.5t-52 -70.5t-78.5 -42t-100.5 -14zM292 86q36 0 67.5 12.5t54.5 36t36 58t13 78.5v7q0 88 -44.5 136.5t-121.5 48.5q-39 0 -70 -14t-52 -38.5t-32.5 -59t-11.5 -75.5v-8q0 -43 13 -76.5t34.5 -57t51 -36t62.5 -12.5zM260 626l87 159
l51 -26l-58 -157z" />
    <glyph glyph-name="Hcircumflex" unicode="&#x124;" horiz-adv-x="730" 
d="M84 715h87v-324h376v324h87v-715h-87v318h-376v-318h-87v715zM322 898h75l107 -127h-61l-85 58l-85 -58h-59z" />
    <glyph glyph-name="hcircumflex" unicode="&#x125;" horiz-adv-x="598" 
d="M78 773h83v-333q18 37 60.5 64.5t107.5 27.5q40 0 74 -11.5t58.5 -37t38 -65.5t13.5 -97v-321h-83v327q0 69 -30 101t-93 32q-29 0 -55.5 -9t-46.5 -27t-32 -45t-12 -62v-317h-83v773zM270 948h75l107 -127h-61l-85 58l-85 -58h-59z" />
    <glyph glyph-name="Hbar" unicode="&#x126;" horiz-adv-x="730" 
d="M20 560h70v155h87v-155h376v155h87v-155h70v-67h-70v-493h-87v318h-376v-318h-87v493h-70v67zM553 391v102h-376v-102h376z" />
    <glyph glyph-name="hbar" unicode="&#x127;" horiz-adv-x="598" 
d="M9 676h75v97h83v-97h178v-61h-178v-175q18 37 60.5 64.5t107.5 27.5q40 0 74 -11.5t58.5 -37t38 -65.5t13.5 -97v-321h-83v327q0 69 -30 101t-93 32q-29 0 -55.5 -9t-46.5 -27t-32 -45t-12 -62v-317h-83v615h-75v61z" />
    <glyph glyph-name="Itilde" unicode="&#x128;" horiz-adv-x="277" 
d="M95 715h87v-715h-87v715zM194 774q-16 0 -31 6.5t-28.5 15t-25.5 15t-23 6.5q-14 0 -25 -12.5t-15 -32.5h-60q6 54 34 85t67 31q16 0 30.5 -6.5t28 -15t25.5 -15t23 -6.5q14 0 25 12.5t15 32.5h60q-6 -54 -34 -85t-66 -31z" />
    <glyph glyph-name="itilde" unicode="&#x129;" horiz-adv-x="255" 
d="M80 523h83v-523h-83v523zM176 619q-16 0 -31 6.5t-28.5 15t-25.5 15t-23 6.5q-14 0 -25 -12.5t-15 -32.5h-60q6 54 34 85t67 31q16 0 30.5 -6.5t28 -15t25.5 -15t23 -6.5q14 0 25 12.5t15 32.5h60q-6 -54 -34 -85t-66 -31z" />
    <glyph glyph-name="Imacron" unicode="&#x12a;" horiz-adv-x="277" 
d="M95 715h87v-715h-87v715zM5 850h266v-64h-266v64z" />
    <glyph glyph-name="imacron" unicode="&#x12b;" horiz-adv-x="255" 
d="M30 712h194v-64h-194v64zM86 523h83v-523h-83v523z" />
    <glyph glyph-name="Ibreve" unicode="&#x12c;" horiz-adv-x="277" 
d="M89 715h87v-715h-87v715zM132 767q-27 0 -50.5 10t-41 27.5t-28.5 41.5t-12 53h66q5 -29 20.5 -46.5t45.5 -17.5q32 0 49 17t23 47h64q-2 -29 -13 -53t-29.5 -41.5t-42.5 -27.5t-51 -10z" />
    <glyph glyph-name="ibreve" unicode="&#x12d;" horiz-adv-x="255" 
d="M86 523h83v-523h-83v523zM126 619q-27 0 -50.5 10t-41 27.5t-28.5 41.5t-12 53h66q5 -29 20.5 -46.5t45.5 -17.5q32 0 49 17t23 47h64q-2 -29 -13 -53t-29.5 -41.5t-42.5 -27.5t-51 -10z" />
    <glyph glyph-name="Iogonek" unicode="&#x12e;" horiz-adv-x="277" 
d="M130 -182q-47 0 -75.5 21t-28.5 59q0 30 20 55.5t49 42.5v719h87v-711q-41 -23 -59 -45t-18 -45q0 -36 38 -36q13 0 27 2.5t25 8.5v-59q-13 -5 -28.5 -8.5t-36.5 -3.5z" />
    <glyph glyph-name="iogonek" unicode="&#x12f;" horiz-adv-x="255" 
d="M120 -182q-47 0 -75.5 21t-28.5 59q0 31 20 56.5t50 41.5v527h83v-520q-38 -23 -56 -44.5t-18 -44.5q0 -36 38 -36q13 0 27 2.5t25 8.5v-59q-13 -5 -28.5 -8.5t-36.5 -3.5zM126 632q-23 0 -39 16t-16 39t16 39t39 16t39 -16t16 -39t-16 -39t-39 -16z" />
    <glyph glyph-name="Idotaccent" unicode="&#x130;" horiz-adv-x="277" 
d="M89 715h87v-715h-87v715zM132 787q-23 0 -39 16t-16 39t16 39t39 16t39 -16t16 -39t-16 -39t-39 -16z" />
    <glyph glyph-name="dotlessi" unicode="&#x131;" horiz-adv-x="255" 
d="M86 523h83v-523h-83v523z" />
    <glyph glyph-name="IJ" unicode="&#x132;" horiz-adv-x="663" 
d="M95 715h87v-715h-87v715zM375 -9q-41 0 -63.5 5.5t-36.5 13.5v72q20 -8 41.5 -14t53.5 -6q54 0 85 32t31 104v517h87v-521q0 -54 -15.5 -92t-42.5 -63t-63 -36.5t-77 -11.5z" />
    <glyph glyph-name="ij" unicode="&#x133;" horiz-adv-x="504" 
d="M80 523h83v-523h-83v523zM120 632q-23 0 -39 16t-16 39t16 39t39 16t39 -16t16 -39t-16 -39t-39 -16zM258 -121q45 4 61 25t16 56v563h83v-556q0 -75 -36.5 -115t-123.5 -43v70zM375 632q-23 0 -39 16t-16 39t16 39t39 16t39 -16t16 -39t-16 -39t-39 -16z" />
    <glyph glyph-name="Jcircumflex" unicode="&#x134;" horiz-adv-x="420" 
d="M132 -9q-41 0 -63.5 5.5t-36.5 13.5v72q20 -8 41.5 -14t53.5 -6q54 0 85 32t31 104v517h87v-521q0 -54 -15.5 -92t-42.5 -63t-63 -36.5t-77 -11.5zM247 898h75l107 -127h-61l-85 58l-85 -58h-59z" />
    <glyph glyph-name="jcircumflex" unicode="&#x135;" horiz-adv-x="255" 
d="M9 -121q45 4 61 25t16 56v563h83v-556q0 -75 -36.5 -115t-123.5 -43v70zM89 757h75l107 -144h-61l-85 75l-85 -75h-59z" />
    <glyph glyph-name="uni0136" unicode="&#x136;" horiz-adv-x="616" 
d="M90 715h87v-344l311 344h97l-318 -347l334 -368h-105l-319 349v-349h-87v715zM244 -194l58 157l80 -24l-87 -159z" />
    <glyph glyph-name="uni0137" unicode="&#x137;" horiz-adv-x="516" 
d="M84 773h83v-491l217 241h97l-224 -243l243 -280h-101l-232 271v-271h-83v773zM192 -194l58 157l80 -24l-87 -159z" />
    <glyph glyph-name="Lacute" unicode="&#x139;" horiz-adv-x="535" 
d="M84 715h87v-644h327v-71h-414v715zM148 898h104l-98 -127h-62z" />
    <glyph glyph-name="lacute" unicode="&#x13a;" horiz-adv-x="256" 
d="M80 773h84v-773h-84v773zM142 948h104l-98 -127h-62z" />
    <glyph glyph-name="uni013B" unicode="&#x13b;" horiz-adv-x="535" 
d="M90 715h87v-644h327v-71h-414v715zM220 -194l58 157l80 -24l-87 -159z" />
    <glyph glyph-name="uni013C" unicode="&#x13c;" horiz-adv-x="256" 
d="M86 773h84v-773h-84v773zM50 -194l58 157l80 -24l-87 -159z" />
    <glyph glyph-name="Lcaron" unicode="&#x13d;" horiz-adv-x="535" 
d="M315 715h94l-58 -157h-58zM90 715h87v-644h327v-71h-414v715z" />
    <glyph glyph-name="lcaron" unicode="&#x13e;" horiz-adv-x="256" 
d="M86 773h84v-773h-84v773zM230 773h94l-48 -175h-58z" />
    <glyph glyph-name="Ldot" unicode="&#x13f;" horiz-adv-x="535" 
d="M84 715h87v-644h327v-71h-414v715zM394 320q-26 0 -45 18.5t-19 45.5t19 45.5t45 18.5t45 -18.5t19 -45.5t-19 -45.5t-45 -18.5z" />
    <glyph glyph-name="ldot" unicode="&#x140;" horiz-adv-x="334" 
d="M86 773h84v-773h-84v773zM290 303q-26 0 -45 18.5t-19 45.5t19 45.5t45 18.5t45 -18.5t19 -45.5t-19 -45.5t-45 -18.5z" />
    <glyph glyph-name="Lslash" unicode="&#x141;" horiz-adv-x="555" 
d="M42 319l68 25v371h87v-339l199 73v-68l-199 -73v-237h327v-71h-414v276l-68 -25v68z" />
    <glyph glyph-name="lslash" unicode="&#x142;" horiz-adv-x="276" 
d="M20 381l76 43v349h84v-301l80 46v-70l-80 -46v-402h-84v354l-76 -43v70z" />
    <glyph glyph-name="Nacute" unicode="&#x143;" horiz-adv-x="724" 
d="M90 715h113l348 -591v591h83v-715h-100l-361 613v-613h-83v715zM391 898h104l-98 -127h-62z" />
    <glyph glyph-name="nacute" unicode="&#x144;" horiz-adv-x="598" 
d="M84 523h83v-83q18 37 60.5 64.5t107.5 27.5q40 0 74 -11.5t58.5 -37t38 -65.5t13.5 -97v-321h-83v327q0 69 -30 101t-93 32q-29 0 -55.5 -9t-46.5 -27t-32 -45t-12 -62v-317h-83v523zM323 760h104l-104 -147h-62z" />
    <glyph glyph-name="uni0145" unicode="&#x145;" horiz-adv-x="724" 
d="M90 715h113l348 -591v591h83v-715h-100l-361 613v-613h-83v715zM272 -194l58 157l80 -24l-87 -159z" />
    <glyph glyph-name="uni0146" unicode="&#x146;" horiz-adv-x="598" 
d="M84 523h83v-83q18 37 60.5 64.5t107.5 27.5q40 0 74 -11.5t58.5 -37t38 -65.5t13.5 -97v-321h-83v327q0 69 -30 101t-93 32q-29 0 -55.5 -9t-46.5 -27t-32 -45t-12 -62v-317h-83v523zM220 -194l58 157l80 -24l-87 -159z" />
    <glyph glyph-name="Ncaron" unicode="&#x147;" horiz-adv-x="724" 
d="M84 715h113l348 -591v591h83v-715h-100l-361 613v-613h-83v715zM221 898h61l85 -58l85 58h59l-108 -127h-75z" />
    <glyph glyph-name="ncaron" unicode="&#x148;" horiz-adv-x="598" 
d="M84 523h83v-83q18 37 60.5 64.5t107.5 27.5q40 0 74 -11.5t58.5 -37t38 -65.5t13.5 -97v-321h-83v327q0 69 -30 101t-93 32q-29 0 -55.5 -9t-46.5 -27t-32 -45t-12 -62v-317h-83v523zM153 757h61l85 -75l85 75h59l-108 -144h-75z" />
    <glyph glyph-name="napostrophe" unicode="&#x149;" horiz-adv-x="604" 
d="M84 523h83v-83q18 37 60.5 64.5t107.5 27.5q40 0 74 -11.5t58.5 -37t38 -65.5t13.5 -97v-321h-83v327q0 69 -30 101t-93 32q-29 0 -55.5 -9t-46.5 -27t-32 -45t-12 -62v-317h-83v523zM-44 514l89 212l79 -36l-117 -202z" />
    <glyph glyph-name="Eng" unicode="&#x14a;" horiz-adv-x="724" 
d="M436 -193q-41 0 -63.5 5.5t-36.5 13.5v72q20 -8 41.5 -14t53.5 -6q53 0 84.5 29.5t33.5 91.5l-376 614v-613h-83v715h113l348 -568v568h83v-705q0 -54 -15.5 -92t-42.5 -63t-63 -36.5t-77 -11.5z" />
    <glyph glyph-name="eng" unicode="&#x14b;" horiz-adv-x="598" 
d="M359 -121q45 4 61 25t16 56v367q0 69 -30 101t-93 32q-29 0 -55.5 -9t-46.5 -27t-32 -45t-12 -62v-317h-83v523h83v-83q18 37 60.5 64.5t107.5 27.5q40 0 74 -11.5t58.5 -37t38 -65.5t13.5 -97v-354q0 -75 -36.5 -115t-123.5 -43v70z" />
    <glyph glyph-name="Omacron" unicode="&#x14c;" horiz-adv-x="811" 
d="M409 63q60 0 107.5 21.5t80.5 60t51 92.5t18 119v8q0 60 -17.5 113t-50.5 92t-81 62t-110 23t-111 -21.5t-82.5 -60.5t-51 -92.5t-17.5 -117.5v-8q0 -65 20.5 -118.5t56 -92t83.5 -59.5t104 -21zM409 -9q-79 0 -144.5 28.5t-112 77.5t-72 115t-25.5 141v8
q0 76 25.5 142.5t72 115.5t111 77t143.5 28t143 -28t110 -77t71 -115t25 -141v-8q0 -76 -25 -142t-70.5 -115.5t-109.5 -78t-142 -28.5zM272 850h266v-64h-266v64z" />
    <glyph glyph-name="omacron" unicode="&#x14d;" horiz-adv-x="604" 
d="M296 60q39 0 71 14t54 40t34 62.5t12 80.5v7q0 45 -12 82t-34.5 63t-54 40t-70.5 14t-71 -14t-54 -40t-34 -62.5t-12 -81.5v-8q0 -90 45.5 -143.5t125.5 -53.5zM295 -9q-56 0 -103 20t-81 55.5t-53 84.5t-19 106v8q0 59 19.5 108t53.5 84.5t81 55t103 19.5
q55 0 102.5 -19.5t81.5 -54.5t53.5 -84t19.5 -108v-8q0 -59 -19.5 -108.5t-54 -84.5t-81.5 -54.5t-103 -19.5zM165 712h262v-64h-262v64z" />
    <glyph glyph-name="Obreve" unicode="&#x14e;" horiz-adv-x="811" 
d="M403 63q60 0 107.5 21.5t80.5 60t51 92.5t18 119v8q0 60 -17.5 113t-50.5 92t-81 62t-110 23t-111 -21.5t-82.5 -60.5t-51 -92.5t-17.5 -117.5v-8q0 -65 20.5 -118.5t56 -92t83.5 -59.5t104 -21zM403 -9q-79 0 -144.5 28.5t-112 77.5t-72 115t-25.5 141v8
q0 76 25.5 142.5t72 115.5t111 77t143.5 28t143 -28t110 -77t71 -115t25 -141v-8q0 -76 -25 -142t-70.5 -115.5t-109.5 -78t-142 -28.5zM397 767q-27 0 -50.5 10t-41 27.5t-28.5 41.5t-12 53h66q5 -29 20.5 -46.5t45.5 -17.5q32 0 49 17t23 47h64q-2 -29 -13 -53
t-29.5 -41.5t-42.5 -27.5t-51 -10z" />
    <glyph glyph-name="obreve" unicode="&#x14f;" horiz-adv-x="604" 
d="M296 60q39 0 71 14t54 40t34 62.5t12 80.5v7q0 45 -12 82t-34.5 63t-54 40t-70.5 14t-71 -14t-54 -40t-34 -62.5t-12 -81.5v-8q0 -90 45.5 -143.5t125.5 -53.5zM295 -9q-56 0 -103 20t-81 55.5t-53 84.5t-19 106v8q0 59 19.5 108t53.5 84.5t81 55t103 19.5
q55 0 102.5 -19.5t81.5 -54.5t53.5 -84t19.5 -108v-8q0 -59 -19.5 -108.5t-54 -84.5t-81.5 -54.5t-103 -19.5zM294 619q-27 0 -50.5 10t-41 27.5t-28.5 41.5t-12 53h66q5 -29 20.5 -46.5t45.5 -17.5q32 0 49 17t23 47h64q-2 -29 -13 -53t-29.5 -41.5t-42.5 -27.5t-51 -10z
" />
    <glyph glyph-name="Ohungarumlaut" unicode="&#x150;" horiz-adv-x="811" 
d="M409 63q60 0 107.5 21.5t80.5 60t51 92.5t18 119v8q0 60 -17.5 113t-50.5 92t-81 62t-110 23t-111 -21.5t-82.5 -60.5t-51 -92.5t-17.5 -117.5v-8q0 -65 20.5 -118.5t56 -92t83.5 -59.5t104 -21zM409 -9q-79 0 -144.5 28.5t-112 77.5t-72 115t-25.5 141v8
q0 76 25.5 142.5t72 115.5t111 77t143.5 28t143 -28t110 -77t71 -115t25 -141v-8q0 -76 -25 -142t-70.5 -115.5t-109.5 -78t-142 -28.5zM330 898h95l-72 -127h-60zM484 898h95l-72 -127h-60z" />
    <glyph glyph-name="ohungarumlaut" unicode="&#x151;" horiz-adv-x="604" 
d="M296 60q39 0 71 14t54 40t34 62.5t12 80.5v7q0 45 -12 82t-34.5 63t-54 40t-70.5 14t-71 -14t-54 -40t-34 -62.5t-12 -81.5v-8q0 -90 45.5 -143.5t125.5 -53.5zM295 -9q-56 0 -103 20t-81 55.5t-53 84.5t-19 106v8q0 59 19.5 108t53.5 84.5t81 55t103 19.5
q55 0 102.5 -19.5t81.5 -54.5t53.5 -84t19.5 -108v-8q0 -59 -19.5 -108.5t-54 -84.5t-81.5 -54.5t-103 -19.5zM224 760h95l-75 -147h-60zM378 760h95l-75 -147h-60z" />
    <glyph glyph-name="OE" unicode="&#x152;" horiz-adv-x="955" 
d="M55 360q0 74 21.5 139t66.5 113t113.5 75.5t162.5 27.5h477v-71h-314v-243h250v-71h-250v-259h332v-71h-497q-92 0 -160 27t-113 74t-67 111t-22 139v9zM421 644q-69 0 -121 -20t-86.5 -57t-51.5 -89.5t-17 -118.5v-8q0 -62 15.5 -113.5t49 -89t86 -58t126.5 -20.5h73
v574h-74z" />
    <glyph glyph-name="oe" unicode="&#x153;" horiz-adv-x="995" 
d="M301 -9q-56 0 -103 20t-81 55.5t-53 84.5t-19 106v8q0 59 19.5 108t53.5 84.5t81 55t103 19.5q74 0 128.5 -33.5t83.5 -92.5q28 59 79.5 92.5t123.5 33.5q45 0 87.5 -14.5t75.5 -45.5t52.5 -80.5t19.5 -119.5v-27h-394q3 -90 45 -137.5t123 -47.5q123 0 139 91h83
q-14 -79 -74 -119.5t-149 -40.5q-75 0 -128.5 32.5t-82.5 92.5q-30 -59 -84.5 -92t-128.5 -33zM302 60q39 0 71 14t54 40t34 62.5t12 80.5v7q0 45 -12 82t-34.5 63t-54 40t-70.5 14t-71 -14t-54 -40t-34 -62.5t-12 -81.5v-8q0 -90 45.5 -143.5t125.5 -53.5zM867 312
q-6 81 -45.5 116t-104.5 35q-64 0 -104.5 -40.5t-51.5 -110.5h306z" />
    <glyph glyph-name="Racute" unicode="&#x154;" horiz-adv-x="628" 
d="M90 715h215q51 0 96.5 -11t79.5 -35t54 -61.5t20 -91.5v-4q0 -44 -14 -77.5t-38 -57t-56 -38.5t-69 -22l219 -317h-97l-213 311h-110v-311h-87v715zM311 380q77 0 117 33t40 99v4q0 36 -11 61t-31 40t-49.5 21.5t-65.5 6.5h-134v-265h134zM329 898h104l-98 -127h-62z" />
    <glyph glyph-name="racute" unicode="&#x155;" horiz-adv-x="377" 
d="M84 523h83v-94q12 22 27.5 40.5t35.5 32t47 21.5t62 9v-78q-39 -2 -71 -10t-54.5 -27t-34.5 -50.5t-12 -79.5v-287h-83v523zM230 760h104l-104 -147h-62z" />
    <glyph glyph-name="uni0156" unicode="&#x156;" horiz-adv-x="628" 
d="M90 715h215q51 0 96.5 -11t79.5 -35t54 -61.5t20 -91.5v-4q0 -44 -14 -77.5t-38 -57t-56 -38.5t-69 -22l219 -317h-97l-213 311h-110v-311h-87v715zM311 380q77 0 117 33t40 99v4q0 36 -11 61t-31 40t-49.5 21.5t-65.5 6.5h-134v-265h134zM232 -194l58 157l80 -24
l-87 -159z" />
    <glyph glyph-name="uni0157" unicode="&#x157;" horiz-adv-x="376" 
d="M84 523h83v-94q12 22 27.5 40.5t35.5 32t47 21.5t62 9v-78q-39 -2 -71 -10t-54.5 -27t-34.5 -50.5t-12 -79.5v-287h-83v523zM45 -194l58 157l80 -24l-87 -159z" />
    <glyph glyph-name="Rcaron" unicode="&#x158;" horiz-adv-x="628" 
d="M84 715h215q51 0 96.5 -11t79.5 -35t54 -61.5t20 -91.5v-4q0 -44 -14 -77.5t-38 -57t-56 -38.5t-69 -22l219 -317h-97l-213 311h-110v-311h-87v715zM305 380q77 0 117 33t40 99v4q0 36 -11 61t-31 40t-49.5 21.5t-65.5 6.5h-134v-265h134zM159 898h61l85 -58l85 58h59
l-108 -127h-75z" />
    <glyph glyph-name="rcaron" unicode="&#x159;" horiz-adv-x="376" 
d="M78 523h83v-94q12 22 27.5 40.5t35.5 32t47 21.5t62 9v-78q-39 -2 -71 -10t-54.5 -27t-34.5 -50.5t-12 -79.5v-287h-83v523zM54 757h61l85 -75l85 75h59l-108 -144h-75z" />
    <glyph glyph-name="Sacute" unicode="&#x15a;" horiz-adv-x="627" 
d="M315 -9q-72 0 -121.5 18.5t-81.5 49.5t-48.5 72t-21.5 87h84q4 -32 14 -60.5t31 -50t55.5 -34t88.5 -12.5q34 0 64 9.5t52 27.5t34.5 43t12.5 55t-8 52.5t-27.5 38.5t-53 27t-84.5 19q-56 9 -100.5 23t-75.5 36.5t-47 56t-16 81.5q0 41 17 76.5t47.5 61.5t72.5 41t93 15
q108 0 171.5 -50.5t74.5 -146.5h-78q-13 68 -53 97.5t-115 29.5q-74 0 -111.5 -32.5t-37.5 -83.5q0 -26 6.5 -46.5t25 -35.5t52 -26.5t88.5 -19.5q60 -9 105 -24t76 -39t46.5 -59t15.5 -86q0 -45 -18.5 -83.5t-51.5 -67t-78.5 -44.5t-98.5 -16zM315 898h104l-98 -127h-62z
" />
    <glyph glyph-name="sacute" unicode="&#x15b;" horiz-adv-x="480" 
d="M240 -9q-94 0 -147.5 44.5t-57.5 125.5h81q5 -47 32.5 -74t90.5 -27q60 0 87 20.5t27 62.5q0 41 -30.5 59t-91.5 29q-51 9 -86 21.5t-56 30.5t-30.5 43t-9.5 59q0 36 16 63.5t41.5 46t57 28t62.5 9.5q35 0 67 -7.5t57.5 -25.5t42.5 -47t22 -71h-80q-9 43 -34.5 62.5
t-75.5 19.5q-45 0 -72 -20.5t-27 -54.5q0 -18 5.5 -30.5t19.5 -22t37.5 -17t59.5 -13.5q40 -8 74 -17.5t58.5 -26t38 -43t13.5 -68.5q0 -72 -48 -115.5t-144 -43.5zM257 760h104l-104 -147h-62z" />
    <glyph glyph-name="Scircumflex" unicode="&#x15c;" horiz-adv-x="627" 
d="M321 -9q-72 0 -121.5 18.5t-81.5 49.5t-48.5 72t-21.5 87h84q4 -32 14 -60.5t31 -50t55.5 -34t88.5 -12.5q34 0 64 9.5t52 27.5t34.5 43t12.5 55t-8 52.5t-27.5 38.5t-53 27t-84.5 19q-56 9 -100.5 23t-75.5 36.5t-47 56t-16 81.5q0 41 17 76.5t47.5 61.5t72.5 41t93 15
q108 0 171.5 -50.5t74.5 -146.5h-78q-13 68 -53 97.5t-115 29.5q-74 0 -111.5 -32.5t-37.5 -83.5q0 -26 6.5 -46.5t25 -35.5t52 -26.5t88.5 -19.5q60 -9 105 -24t76 -39t46.5 -59t15.5 -86q0 -45 -18.5 -83.5t-51.5 -67t-78.5 -44.5t-98.5 -16zM265 898h75l107 -127h-61
l-85 58l-85 -58h-59z" />
    <glyph glyph-name="scircumflex" unicode="&#x15d;" horiz-adv-x="480" 
d="M246 -9q-94 0 -147.5 44.5t-57.5 125.5h81q5 -47 32.5 -74t90.5 -27q60 0 87 20.5t27 62.5q0 41 -30.5 59t-91.5 29q-51 9 -86 21.5t-56 30.5t-30.5 43t-9.5 59q0 36 16 63.5t41.5 46t57 28t62.5 9.5q35 0 67 -7.5t57.5 -25.5t42.5 -47t22 -71h-80q-9 43 -34.5 62.5
t-75.5 19.5q-45 0 -72 -20.5t-27 -54.5q0 -18 5.5 -30.5t19.5 -22t37.5 -17t59.5 -13.5q40 -8 74 -17.5t58.5 -26t38 -43t13.5 -68.5q0 -72 -48 -115.5t-144 -43.5zM201 757h75l107 -144h-61l-85 75l-85 -75h-59z" />
    <glyph glyph-name="uni015E" unicode="&#x15e;" horiz-adv-x="627" 
d="M290 -214q-44 0 -70.5 23t-29.5 61h54q3 -14 13.5 -25t29.5 -11t29.5 10t10.5 26t-10 25t-26 9q-10 0 -17 -3t-11 -5l-32 28l38 70q-57 6 -97 26.5t-66 50.5t-40 67.5t-18 79.5h84q4 -32 14 -60.5t31 -50t55.5 -34t88.5 -12.5q34 0 64 9.5t52 27.5t34.5 43t12.5 55
t-8 52.5t-27.5 38.5t-53 27t-84.5 19q-56 9 -100.5 23t-75.5 36.5t-47 56t-16 81.5q0 41 17 76.5t47.5 61.5t72.5 41t93 15q108 0 171.5 -50.5t74.5 -146.5h-78q-13 68 -53 97.5t-115 29.5q-74 0 -111.5 -32.5t-37.5 -83.5q0 -26 6.5 -46.5t25 -35.5t52 -26.5t88.5 -19.5
q60 -9 105 -24t76 -39t46.5 -59t15.5 -86q0 -45 -18.5 -83.5t-51.5 -67t-78.5 -44.5t-98.5 -16l-24 -44q17 2 34 -1.5t30.5 -13.5t21.5 -26.5t8 -39.5q0 -20 -8 -35t-22 -25t-32.5 -15t-38.5 -5z" />
    <glyph glyph-name="uni015F" unicode="&#x15f;" horiz-adv-x="480" 
d="M227 -214q-44 0 -70.5 23t-29.5 61h54q3 -14 13.5 -25t29.5 -11t29.5 10t10.5 26t-10 25t-26 9q-10 0 -17 -3t-11 -5l-32 28l38 70q-76 8 -119 51.5t-46 115.5h81q5 -47 32.5 -74t90.5 -27q60 0 87 20.5t27 62.5q0 41 -30.5 59t-91.5 29q-51 9 -86 21.5t-56 30.5
t-30.5 43t-9.5 59q0 36 16 63.5t41.5 46t57 28t62.5 9.5q35 0 67 -7.5t57.5 -25.5t42.5 -47t22 -71h-80q-9 43 -34.5 62.5t-75.5 19.5q-45 0 -72 -20.5t-27 -54.5q0 -18 5.5 -30.5t19.5 -22t37.5 -17t59.5 -13.5q40 -8 74 -17.5t58.5 -26t38 -43t13.5 -68.5
q0 -69 -45 -112.5t-135 -46.5l-24 -44q17 2 34 -1.5t30.5 -13.5t21.5 -26.5t8 -39.5q0 -20 -8 -35t-22 -25t-32.5 -15t-38.5 -5z" />
    <glyph glyph-name="Scaron" unicode="&#x160;" horiz-adv-x="627" 
d="M315 -9q-72 0 -121.5 18.5t-81.5 49.5t-48.5 72t-21.5 87h84q4 -32 14 -60.5t31 -50t55.5 -34t88.5 -12.5q34 0 64 9.5t52 27.5t34.5 43t12.5 55t-8 52.5t-27.5 38.5t-53 27t-84.5 19q-56 9 -100.5 23t-75.5 36.5t-47 56t-16 81.5q0 41 17 76.5t47.5 61.5t72.5 41t93 15
q108 0 171.5 -50.5t74.5 -146.5h-78q-13 68 -53 97.5t-115 29.5q-74 0 -111.5 -32.5t-37.5 -83.5q0 -26 6.5 -46.5t25 -35.5t52 -26.5t88.5 -19.5q60 -9 105 -24t76 -39t46.5 -59t15.5 -86q0 -45 -18.5 -83.5t-51.5 -67t-78.5 -44.5t-98.5 -16zM151 898h61l85 -58l85 58h59
l-108 -127h-75z" />
    <glyph glyph-name="scaron" unicode="&#x161;" horiz-adv-x="480" 
d="M240 -9q-94 0 -147.5 44.5t-57.5 125.5h81q5 -47 32.5 -74t90.5 -27q60 0 87 20.5t27 62.5q0 41 -30.5 59t-91.5 29q-51 9 -86 21.5t-56 30.5t-30.5 43t-9.5 59q0 36 16 63.5t41.5 46t57 28t62.5 9.5q35 0 67 -7.5t57.5 -25.5t42.5 -47t22 -71h-80q-9 43 -34.5 62.5
t-75.5 19.5q-45 0 -72 -20.5t-27 -54.5q0 -18 5.5 -30.5t19.5 -22t37.5 -17t59.5 -13.5q40 -8 74 -17.5t58.5 -26t38 -43t13.5 -68.5q0 -72 -48 -115.5t-144 -43.5zM87 757h61l85 -75l85 75h59l-108 -144h-75z" />
    <glyph glyph-name="Tcommaaccent" unicode="&#x162;" horiz-adv-x="561" 
d="M231 644h-208v71h503v-71h-208v-644h-87v644zM196 -194l58 157l80 -24l-87 -159z" />
    <glyph glyph-name="tcommaaccent" unicode="&#x163;" horiz-adv-x="355" 
d="M237 -7q-72 0 -106.5 38t-34.5 100v322h-75v70h75v119h83v-119h122v-70h-122v-314q0 -76 65 -76q20 0 35 3t29 8v-70q-13 -5 -29 -8t-42 -3zM107 -194l58 157l80 -24l-87 -159z" />
    <glyph glyph-name="Tcaron" unicode="&#x164;" horiz-adv-x="561" 
d="M231 644h-208v71h503v-71h-208v-644h-87v644zM129 898h61l85 -58l85 58h59l-108 -127h-75z" />
    <glyph glyph-name="tcaron" unicode="&#x165;" horiz-adv-x="349" 
d="M237 -7q-72 0 -106.5 38t-34.5 100v322h-75v70h75v119h83v-119h122v-70h-122v-314q0 -76 65 -76q20 0 35 3t29 8v-70q-13 -5 -29 -8t-42 -3zM263 773h94l-48 -175h-58z" />
    <glyph glyph-name="Tbar" unicode="&#x166;" horiz-adv-x="561" 
d="M92 404h145v240h-208v71h503v-71h-208v-240h145v-66h-145v-338h-87v338h-145v66z" />
    <glyph glyph-name="tbar" unicode="&#x167;" horiz-adv-x="355" 
d="M27 339h75v114h-75v70h75v119h83v-119h122v-70h-122v-114h122v-59h-122v-141q0 -76 65 -76q20 0 35 3t29 8v-70q-13 -5 -29 -8t-42 -3q-72 0 -106.5 38t-34.5 100v149h-75v59z" />
    <glyph glyph-name="Utilde" unicode="&#x168;" horiz-adv-x="696" 
d="M335 -9q-124 0 -190.5 69.5t-66.5 200.5v454h87v-444q0 -56 10 -95.5t31 -64.5t53.5 -36.5t77.5 -11.5q43 0 76.5 10t57 35t36 67.5t12.5 108.5v431h87v-443q0 -131 -66.5 -206t-204.5 -75zM396 774q-16 0 -31 6.5t-28.5 15t-25.5 15t-23 6.5q-14 0 -25 -12.5t-15 -32.5
h-60q6 54 34 85t67 31q16 0 30.5 -6.5t28 -15t25.5 -15t23 -6.5q14 0 25 12.5t15 32.5h60q-6 -54 -34 -85t-66 -31z" />
    <glyph glyph-name="utilde" unicode="&#x169;" horiz-adv-x="594" 
d="M255 -9q-39 0 -72.5 11t-57.5 35.5t-38 62.5t-14 92v331h83v-327q0 -69 29.5 -101t91.5 -32q28 0 54 9t46 27t32 45t12 62v317h83v-523h-83v83q-18 -37 -60.5 -64.5t-105.5 -27.5zM345 619q-16 0 -31 6.5t-28.5 15t-25.5 15t-23 6.5q-14 0 -25 -12.5t-15 -32.5h-60
q6 54 34 85t67 31q16 0 30.5 -6.5t28 -15t25.5 -15t23 -6.5q14 0 25 12.5t15 32.5h60q-6 -54 -34 -85t-66 -31z" />
    <glyph glyph-name="Umacron" unicode="&#x16a;" horiz-adv-x="696" 
d="M341 -9q-124 0 -190.5 69.5t-66.5 200.5v454h87v-444q0 -56 10 -95.5t31 -64.5t53.5 -36.5t77.5 -11.5q43 0 76.5 10t57 35t36 67.5t12.5 108.5v431h87v-443q0 -131 -66.5 -206t-204.5 -75zM215 850h266v-64h-266v64z" />
    <glyph glyph-name="umacron" unicode="&#x16b;" horiz-adv-x="594" 
d="M255 -9q-39 0 -72.5 11t-57.5 35.5t-38 62.5t-14 92v331h83v-327q0 -69 29.5 -101t91.5 -32q28 0 54 9t46 27t32 45t12 62v317h83v-523h-83v83q-18 -37 -60.5 -64.5t-105.5 -27.5zM160 712h262v-64h-262v64z" />
    <glyph glyph-name="Ubreve" unicode="&#x16c;" horiz-adv-x="696" 
d="M335 -9q-124 0 -190.5 69.5t-66.5 200.5v454h87v-444q0 -56 10 -95.5t31 -64.5t53.5 -36.5t77.5 -11.5q43 0 76.5 10t57 35t36 67.5t12.5 108.5v431h87v-443q0 -131 -66.5 -206t-204.5 -75zM340 767q-27 0 -50.5 10t-41 27.5t-28.5 41.5t-12 53h66q5 -29 20.5 -46.5
t45.5 -17.5q32 0 49 17t23 47h64q-2 -29 -13 -53t-29.5 -41.5t-42.5 -27.5t-51 -10z" />
    <glyph glyph-name="ubreve" unicode="&#x16d;" horiz-adv-x="594" 
d="M255 -9q-39 0 -72.5 11t-57.5 35.5t-38 62.5t-14 92v331h83v-327q0 -69 29.5 -101t91.5 -32q28 0 54 9t46 27t32 45t12 62v317h83v-523h-83v83q-18 -37 -60.5 -64.5t-105.5 -27.5zM289 619q-27 0 -50.5 10t-41 27.5t-28.5 41.5t-12 53h66q5 -29 20.5 -46.5t45.5 -17.5
q32 0 49 17t23 47h64q-2 -29 -13 -53t-29.5 -41.5t-42.5 -27.5t-51 -10z" />
    <glyph glyph-name="Uring" unicode="&#x16e;" horiz-adv-x="696" 
d="M335 -9q-124 0 -190.5 69.5t-66.5 200.5v454h87v-444q0 -56 10 -95.5t31 -64.5t53.5 -36.5t77.5 -11.5q43 0 76.5 10t57 35t36 67.5t12.5 108.5v431h87v-443q0 -131 -66.5 -206t-204.5 -75zM342 785q23 0 38 16.5t15 41.5t-15 41.5t-38 16.5t-38 -16.5t-15 -41.5
t15 -41.5t38 -16.5zM342 739q-22 0 -41.5 8t-34 22.5t-23 33.5t-8.5 40t8.5 40t23 33.5t34 22.5t41.5 8t41.5 -8t34 -22.5t23 -33.5t8.5 -40t-8.5 -40t-23 -33.5t-34 -22.5t-41.5 -8z" />
    <glyph glyph-name="uring" unicode="&#x16f;" horiz-adv-x="594" 
d="M255 -9q-39 0 -72.5 11t-57.5 35.5t-38 62.5t-14 92v331h83v-327q0 -69 29.5 -101t91.5 -32q28 0 54 9t46 27t32 45t12 62v317h83v-523h-83v83q-18 -37 -60.5 -64.5t-105.5 -27.5zM288 614q23 0 38 16.5t15 41.5t-15 41.5t-38 16.5t-38 -16.5t-15 -41.5t15 -41.5
t38 -16.5zM288 568q-22 0 -41.5 8t-34 22.5t-23 33.5t-8.5 40t8.5 40t23 33.5t34 22.5t41.5 8t41.5 -8t34 -22.5t23 -33.5t8.5 -40t-8.5 -40t-23 -33.5t-34 -22.5t-41.5 -8z" />
    <glyph glyph-name="Uhungarumlaut" unicode="&#x170;" horiz-adv-x="696" 
d="M335 -9q-124 0 -190.5 69.5t-66.5 200.5v454h87v-444q0 -56 10 -95.5t31 -64.5t53.5 -36.5t77.5 -11.5q43 0 76.5 10t57 35t36 67.5t12.5 108.5v431h87v-443q0 -131 -66.5 -206t-204.5 -75zM267 898h95l-72 -127h-60zM421 898h95l-72 -127h-60z" />
    <glyph glyph-name="uhungarumlaut" unicode="&#x171;" horiz-adv-x="594" 
d="M255 -9q-39 0 -72.5 11t-57.5 35.5t-38 62.5t-14 92v331h83v-327q0 -69 29.5 -101t91.5 -32q28 0 54 9t46 27t32 45t12 62v317h83v-523h-83v83q-18 -37 -60.5 -64.5t-105.5 -27.5zM219 760h95l-75 -147h-60zM373 760h95l-75 -147h-60z" />
    <glyph glyph-name="Uogonek" unicode="&#x172;" horiz-adv-x="696" 
d="M384 -182q-47 0 -75.5 21t-28.5 59q0 29 18 52.5t44 40.5h-1q-124 0 -190.5 69.5t-66.5 200.5v454h87v-444q0 -56 10 -95.5t31 -64.5t53.5 -36.5t77.5 -11.5q43 0 76.5 10t57 35t36 67.5t12.5 108.5v431h87v-443q0 -96 -34 -160t-99 -94q-26 -12 -47.5 -23t-38 -23
t-25.5 -26t-9 -32q0 -36 38 -36q13 0 27 2.5t25 8.5v-59q-13 -5 -28.5 -8.5t-36.5 -3.5z" />
    <glyph glyph-name="uogonek" unicode="&#x173;" horiz-adv-x="594" 
d="M459 -182q-47 0 -75.5 21t-28.5 59q0 31 21 57t51 42v86q-18 -37 -60.5 -64.5t-105.5 -27.5q-39 0 -72.5 11t-57.5 35.5t-38 62.5t-14 92v331h83v-327q0 -69 29.5 -101t91.5 -32q28 0 54 9t46 27t32 45t12 62v317h83v-518q-41 -26 -58.5 -47t-17.5 -44q0 -36 38 -36
q13 0 27 2.5t25 8.5v-59q-13 -5 -28.5 -8.5t-36.5 -3.5z" />
    <glyph glyph-name="Wcircumflex" unicode="&#x174;" horiz-adv-x="928" 
d="M34 715h89l145 -577l168 577h62l168 -579l147 579h81l-186 -715h-80l-162 565l-167 -565h-79zM427 898h75l107 -127h-61l-85 58l-85 -58h-59z" />
    <glyph glyph-name="wcircumflex" unicode="&#x175;" horiz-adv-x="794" 
d="M28 523h90l122 -421l127 421h72l119 -421l123 421h85l-163 -523h-92l-109 392l-122 -392h-91zM360 757h75l107 -144h-61l-85 75l-85 -75h-59z" />
    <glyph glyph-name="Ycircumflex" unicode="&#x176;" horiz-adv-x="598" 
d="M256 312l-239 403h98l187 -332l180 332h87l-226 -404v-311h-87v312zM256 898h75l107 -127h-61l-85 58l-85 -58h-59z" />
    <glyph glyph-name="ycircumflex" unicode="&#x177;" horiz-adv-x="529" 
d="M224 54l-205 469h89l160 -375l145 375h85l-289 -705h-84zM221 757h75l107 -144h-61l-85 75l-85 -75h-59z" />
    <glyph glyph-name="Ydieresis" unicode="&#x178;" horiz-adv-x="598" 
d="M256 312l-239 403h98l187 -332l180 332h87l-226 -404v-311h-87v312zM191 789q-22 0 -37.5 15.5t-15.5 37.5t15.5 37.5t37.5 15.5t37.5 -15.5t15.5 -37.5t-15.5 -37.5t-37.5 -15.5zM394 789q-22 0 -37.5 15.5t-15.5 37.5t15.5 37.5t37.5 15.5t37.5 -15.5t15.5 -37.5
t-15.5 -37.5t-37.5 -15.5z" />
    <glyph glyph-name="Zacute" unicode="&#x179;" horiz-adv-x="595" 
d="M22 14l405 630h-369v71h489v-13l-394 -628h388v-74h-519v14zM308 898h104l-98 -127h-62z" />
    <glyph glyph-name="zacute" unicode="&#x17a;" horiz-adv-x="483" 
d="M15 12l309 441h-279v70h407v-15l-302 -435h298v-73h-433v12zM267 760h104l-104 -147h-62z" />
    <glyph glyph-name="Zdotaccent" unicode="&#x17b;" horiz-adv-x="595" 
d="M28 14l405 630h-369v71h489v-13l-394 -628h388v-74h-519v14zM295 787q-23 0 -39 16t-16 39t16 39t39 16t39 -16t16 -39t-16 -39t-39 -16z" />
    <glyph glyph-name="zdotaccent" unicode="&#x17c;" horiz-adv-x="483" 
d="M15 12l309 441h-279v70h407v-15l-302 -435h298v-73h-433v12zM242 632q-23 0 -39 16t-16 39t16 39t39 16t39 -16t16 -39t-16 -39t-39 -16z" />
    <glyph glyph-name="Zcaron" unicode="&#x17d;" horiz-adv-x="595" 
d="M22 14l405 630h-369v71h489v-13l-394 -628h388v-74h-519v14zM144 898h61l85 -58l85 58h59l-108 -127h-75z" />
    <glyph glyph-name="zcaron" unicode="&#x17e;" horiz-adv-x="483" 
d="M15 12l309 441h-279v70h407v-15l-302 -435h298v-73h-433v12zM97 757h61l85 -75l85 75h59l-108 -144h-75z" />
    <glyph glyph-name="uni0192" unicode="&#x192;" horiz-adv-x="409" 
d="M35 413h97l23 152q12 78 54 118.5t115 40.5q22 0 38 -3t30 -8v-70q-11 5 -27.5 8.5t-38.5 3.5q-42 0 -62.5 -26.5t-26.5 -67.5l-23 -148h132v-68h-142l-80 -527h-83l80 527h-86v68z" />
    <glyph glyph-name="Aringacute" unicode="&#x1fa;" horiz-adv-x="674" 
d="M282 715h114l242 -715h-86l-70 206h-295l-69 -206h-82zM211 275h248l-124 368zM344 795q23 0 38 16.5t15 41.5t-15 41.5t-38 16.5t-38 -16.5t-15 -41.5t15 -41.5t38 -16.5zM344 749q-22 0 -41.5 8t-34 22.5t-23 33.5t-8.5 40t8.5 40t23 33.5t34 22.5t41.5 8t41.5 -8
t34 -22.5t23 -33.5t8.5 -40t-8.5 -40t-23 -33.5t-34 -22.5t-41.5 -8zM367 1113h104l-98 -127h-62z" />
    <glyph glyph-name="aringacute" unicode="&#x1fb;" horiz-adv-x="540" 
d="M215 -9q-36 0 -68 9t-55.5 28t-37 48t-13.5 69q0 45 22 76t58.5 50t84 27.5t97.5 8.5h75v38q0 63 -26 90.5t-86 27.5q-108 0 -120 -94h-83q4 45 22.5 76t47 50.5t64 28t73.5 8.5q37 0 72 -8.5t61 -30t42 -57.5t16 -91v-345h-83v66q-29 -37 -67 -56t-96 -19zM223 57
q33 0 61.5 8.5t49 24.5t32.5 39.5t12 53.5v65h-72q-39 0 -72.5 -5.5t-58 -17.5t-38 -31.5t-13.5 -48.5q0 -41 22 -64.5t77 -23.5zM273 624q23 0 38 16.5t15 41.5t-15 41.5t-38 16.5t-38 -16.5t-15 -41.5t15 -41.5t38 -16.5zM273 578q-22 0 -41.5 8t-34 22.5t-23 33.5
t-8.5 40t8.5 40t23 33.5t34 22.5t41.5 8t41.5 -8t34 -22.5t23 -33.5t8.5 -40t-8.5 -40t-23 -33.5t-34 -22.5t-41.5 -8zM303 956h104l-98 -127h-62z" />
    <glyph glyph-name="AEacute" unicode="&#x1fc;" horiz-adv-x="950" 
d="M393 715h492v-71h-330v-243h266v-71h-266v-259h348v-71h-435v207h-252l-105 -207h-88zM250 275h218v369h-31zM623 898h104l-98 -127h-62z" />
    <glyph glyph-name="aeacute" unicode="&#x1fd;" horiz-adv-x="880" 
d="M610 -9q-66 0 -116.5 28.5t-80.5 79.5q-36 -57 -84 -82.5t-120 -25.5q-36 0 -68 9t-55.5 28t-37 48t-13.5 69q0 46 21.5 77.5t57.5 51t83 28t97 8.5h78v34q0 63 -27 91t-85 28q-108 0 -120 -94h-83q4 45 22.5 76t47 50.5t64 28t73.5 8.5q52 0 96.5 -19.5t67.5 -69.5
q30 42 74.5 65.5t101.5 23.5q43 0 84 -14t73 -45t51 -80.5t19 -120.5v-25h-379q3 -90 42 -138.5t117 -48.5q117 0 133 91h83q-14 -79 -73 -119.5t-144 -40.5zM217 57q33 0 61.5 8.5t49 24.5t32.5 39.5t12 53.5v64h-75q-39 0 -72 -5t-57 -17t-37 -31.5t-13 -48.5
q0 -41 22 -64.5t77 -23.5zM746 310q-6 83 -42.5 118t-99.5 35q-61 0 -100 -41t-49 -112h291zM463 760h104l-104 -147h-62z" />
    <glyph glyph-name="Oslashacute" unicode="&#x1fe;" horiz-adv-x="811" 
d="M29 12l98 107q-38 48 -58 107.5t-20 126.5v8q0 76 25.5 142.5t72 115.5t111 77t143.5 28q63 0 117 -18.5t97 -51.5l81 88l45 -45l-79 -87q42 -48 65 -111.5t23 -135.5v-8q0 -76 -25 -142t-70.5 -115.5t-109.5 -78t-142 -28.5q-69 0 -128 22t-104 60l-97 -106zM403 63
q60 0 107.5 21.5t80.5 60t51 92.5t18 119v8q0 112 -52 188l-384 -421q35 -34 80.5 -51t98.5 -17zM139 354q0 -52 11.5 -95t32.5 -78l382 418q-32 26 -72.5 40.5t-91.5 14.5q-62 0 -111 -21.5t-82.5 -60.5t-51 -92.5t-17.5 -117.5v-8zM419 898h104l-98 -127h-62z" />
    <glyph glyph-name="oslashacute" unicode="&#x1ff;" horiz-adv-x="604" 
d="M17 1l77 85q-26 34 -40.5 77t-14.5 94v8q0 59 19.5 108t53.5 84.5t81 55t103 19.5q45 0 84.5 -13t71.5 -37l68 74l44 -38l-70 -77q28 -35 43.5 -79t15.5 -96v-8q0 -59 -19.5 -108.5t-54 -84.5t-81.5 -54.5t-103 -19.5q-48 0 -88 14t-72 40l-74 -82zM296 60q39 0 71 14
t54 40t34 62.5t12 80.5v7q0 35 -7 64t-20 53l-256 -281q45 -40 112 -40zM125 257q0 -65 24 -111l253 280q-43 37 -106 37q-39 0 -71 -14t-54 -40t-34 -62.5t-12 -81.5v-8zM320 760h104l-104 -147h-62z" />
    <glyph glyph-name="uni0218" unicode="&#x218;" horiz-adv-x="627" 
d="M321 -9q-72 0 -121.5 18.5t-81.5 49.5t-48.5 72t-21.5 87h84q4 -32 14 -60.5t31 -50t55.5 -34t88.5 -12.5q34 0 64 9.5t52 27.5t34.5 43t12.5 55t-8 52.5t-27.5 38.5t-53 27t-84.5 19q-56 9 -100.5 23t-75.5 36.5t-47 56t-16 81.5q0 41 17 76.5t47.5 61.5t72.5 41t93 15
q108 0 171.5 -50.5t74.5 -146.5h-78q-13 68 -53 97.5t-115 29.5q-74 0 -111.5 -32.5t-37.5 -83.5q0 -26 6.5 -46.5t25 -35.5t52 -26.5t88.5 -19.5q60 -9 105 -24t76 -39t46.5 -59t15.5 -86q0 -45 -18.5 -83.5t-51.5 -67t-78.5 -44.5t-98.5 -16zM224 -194l58 157l80 -24
l-87 -159z" />
    <glyph glyph-name="uni0219" unicode="&#x219;" horiz-adv-x="480" 
d="M246 -9q-94 0 -147.5 44.5t-57.5 125.5h81q5 -47 32.5 -74t90.5 -27q60 0 87 20.5t27 62.5q0 41 -30.5 59t-91.5 29q-51 9 -86 21.5t-56 30.5t-30.5 43t-9.5 59q0 36 16 63.5t41.5 46t57 28t62.5 9.5q35 0 67 -7.5t57.5 -25.5t42.5 -47t22 -71h-80q-9 43 -34.5 62.5
t-75.5 19.5q-45 0 -72 -20.5t-27 -54.5q0 -18 5.5 -30.5t19.5 -22t37.5 -17t59.5 -13.5q40 -8 74 -17.5t58.5 -26t38 -43t13.5 -68.5q0 -72 -48 -115.5t-144 -43.5zM160 -194l58 157l80 -24l-87 -159z" />
    <glyph glyph-name="uni021A" unicode="&#x21a;" horiz-adv-x="561" 
d="M237 644h-208v71h503v-71h-208v-644h-87v644zM202 -194l58 157l80 -24l-87 -159z" />
    <glyph glyph-name="uni021B" unicode="&#x21b;" horiz-adv-x="355" 
d="M243 -7q-72 0 -106.5 38t-34.5 100v322h-75v70h75v119h83v-119h122v-70h-122v-314q0 -76 65 -76q20 0 35 3t29 8v-70q-13 -5 -29 -8t-42 -3zM113 -194l58 157l80 -24l-87 -159z" />
    <glyph glyph-name="uni0237" unicode="&#x237;" horiz-adv-x="255" 
d="M9 -121q45 4 61 25t16 56v563h83v-556q0 -75 -36.5 -115t-123.5 -43v70z" />
    <glyph glyph-name="circumflex" unicode="&#x2c6;" horiz-adv-x="400" 
d="M163 757h75l107 -144h-61l-85 75l-85 -75h-59z" />
    <glyph glyph-name="caron" unicode="&#x2c7;" horiz-adv-x="400" 
d="M55 757h61l85 -75l85 75h59l-108 -144h-75z" />
    <glyph glyph-name="breve" unicode="&#x2d8;" horiz-adv-x="400" 
d="M198 619q-27 0 -50.5 10t-41 27.5t-28.5 41.5t-12 53h66q5 -29 20.5 -46.5t45.5 -17.5q32 0 49 17t23 47h64q-2 -29 -13 -53t-29.5 -41.5t-42.5 -27.5t-51 -10z" />
    <glyph glyph-name="dotaccent" unicode="&#x2d9;" horiz-adv-x="400" 
d="M200 632q-23 0 -39 16t-16 39t16 39t39 16t39 -16t16 -39t-16 -39t-39 -16z" />
    <glyph glyph-name="ring" unicode="&#x2da;" horiz-adv-x="400" 
d="M200 644q23 0 38 16.5t15 41.5t-15 41.5t-38 16.5t-38 -16.5t-15 -41.5t15 -41.5t38 -16.5zM200 598q-22 0 -41.5 8t-34 22.5t-23 33.5t-8.5 40t8.5 40t23 33.5t34 22.5t41.5 8t41.5 -8t34 -22.5t23 -33.5t8.5 -40t-8.5 -40t-23 -33.5t-34 -22.5t-41.5 -8z" />
    <glyph glyph-name="ogonek" unicode="&#x2db;" horiz-adv-x="400" 
d="M223 -182q-47 0 -75.5 21t-28.5 59q0 32 23 59t55 43h69q-34 -23 -51 -43t-17 -43q0 -36 38 -36q13 0 27 2.5t25 8.5v-59q-13 -5 -28.5 -8.5t-36.5 -3.5z" />
    <glyph glyph-name="tilde" unicode="&#x2dc;" horiz-adv-x="400" 
d="M254 619q-16 0 -31 6.5t-28.5 15t-25.5 15t-23 6.5q-14 0 -25 -12.5t-15 -32.5h-60q6 54 34 85t67 31q16 0 30.5 -6.5t28 -15t25.5 -15t23 -6.5q14 0 25 12.5t15 32.5h60q-6 -54 -34 -85t-66 -31z" />
    <glyph glyph-name="hungarumlaut" unicode="&#x2dd;" horiz-adv-x="400" 
d="M136 760h95l-75 -147h-60zM290 760h95l-75 -147h-60z" />
    <glyph glyph-name="Wgrave" unicode="&#x1e80;" horiz-adv-x="928" 
d="M34 715h89l145 -577l168 577h62l168 -579l147 579h81l-186 -715h-80l-162 565l-167 -565h-79zM344 898h104l56 -127h-62z" />
    <glyph glyph-name="wgrave" unicode="&#x1e81;" horiz-adv-x="794" 
d="M28 523h90l122 -421l127 421h72l119 -421l123 421h85l-163 -523h-92l-109 392l-122 -392h-91zM277 760h104l62 -147h-62z" />
    <glyph glyph-name="Wacute" unicode="&#x1e82;" horiz-adv-x="928" 
d="M34 715h89l145 -577l168 577h62l168 -579l147 579h81l-186 -715h-80l-162 565l-167 -565h-79zM496 898h104l-98 -127h-62z" />
    <glyph glyph-name="wacute" unicode="&#x1e83;" horiz-adv-x="794" 
d="M28 523h90l122 -421l127 421h72l119 -421l123 421h85l-163 -523h-92l-109 392l-122 -392h-91zM432 760h104l-104 -147h-62z" />
    <glyph glyph-name="Wdieresis" unicode="&#x1e84;" horiz-adv-x="928" 
d="M34 715h89l145 -577l168 577h62l168 -579l147 579h81l-186 -715h-80l-162 565l-167 -565h-79zM365 789q-22 0 -37.5 15.5t-15.5 37.5t15.5 37.5t37.5 15.5t37.5 -15.5t15.5 -37.5t-15.5 -37.5t-37.5 -15.5zM568 789q-22 0 -37.5 15.5t-15.5 37.5t15.5 37.5t37.5 15.5
t37.5 -15.5t15.5 -37.5t-15.5 -37.5t-37.5 -15.5z" />
    <glyph glyph-name="wdieresis" unicode="&#x1e85;" horiz-adv-x="794" 
d="M28 523h90l122 -421l127 421h72l119 -421l123 421h85l-163 -523h-92l-109 392l-122 -392h-91zM308 634q-22 0 -37.5 15.5t-15.5 37.5t15.5 37.5t37.5 15.5t37.5 -15.5t15.5 -37.5t-15.5 -37.5t-37.5 -15.5zM496 634q-22 0 -37.5 15.5t-15.5 37.5t15.5 37.5t37.5 15.5
t37.5 -15.5t15.5 -37.5t-15.5 -37.5t-37.5 -15.5z" />
    <glyph glyph-name="Ygrave" unicode="&#x1ef2;" horiz-adv-x="598" 
d="M256 312l-239 403h98l187 -332l180 332h87l-226 -404v-311h-87v312zM180 898h104l56 -127h-62z" />
    <glyph glyph-name="ygrave" unicode="&#x1ef3;" horiz-adv-x="529" 
d="M224 54l-205 469h89l160 -375l145 375h85l-289 -705h-84zM133 760h104l62 -147h-62z" />
    <glyph glyph-name="uni2009" unicode="&#x2009;" horiz-adv-x="110" 
 />
    <glyph glyph-name="endash" unicode="&#x2013;" horiz-adv-x="526" 
d="M45 311h436v-70h-436v70z" />
    <glyph glyph-name="emdash" unicode="&#x2014;" horiz-adv-x="885" 
d="M45 311h795v-70h-795v70z" />
    <glyph glyph-name="quoteleft" unicode="&#x2018;" horiz-adv-x="255" 
d="M40 524l117 202l51 -26l-89 -212z" />
    <glyph glyph-name="quoteright" unicode="&#x2019;" horiz-adv-x="255" 
d="M47 514l89 212l79 -36l-117 -202z" />
    <glyph glyph-name="quotesinglbase" unicode="&#x201a;" horiz-adv-x="255" 
d="M47 -88l89 212l79 -36l-117 -202z" />
    <glyph glyph-name="quotedblleft" unicode="&#x201c;" horiz-adv-x="432" 
d="M40 524l117 202l51 -26l-89 -212zM217 524l117 202l51 -26l-89 -212z" />
    <glyph glyph-name="quotedblright" unicode="&#x201d;" horiz-adv-x="432" 
d="M47 514l89 212l79 -36l-117 -202zM224 514l89 212l79 -36l-117 -202z" />
    <glyph glyph-name="quotedblbase" unicode="&#x201e;" horiz-adv-x="432" 
d="M47 -88l89 212l79 -36l-117 -202zM224 -88l89 212l79 -36l-117 -202z" />
    <glyph glyph-name="dagger" unicode="&#x2020;" horiz-adv-x="374" 
d="M150 519h-116v67h116v129h75v-129h115v-67h-115v-306h-75v306z" />
    <glyph glyph-name="daggerdbl" unicode="&#x2021;" horiz-adv-x="374" 
d="M150 519h-116v67h116v129h75v-129h115v-67h-115v-110h115v-67h-115v-129h-75v129h-116v67h116v110z" />
    <glyph glyph-name="bullet" unicode="&#x2022;" horiz-adv-x="332" 
d="M166 190q-25 0 -46 9t-36.5 25t-24.5 37t-9 45t9 45t24.5 37t36.5 25t46 9t46.5 -9t37 -25t24 -37t8.5 -45t-8.5 -45t-24 -37t-37 -25t-46.5 -9z" />
    <glyph glyph-name="ellipsis" unicode="&#x2026;" horiz-adv-x="806" 
d="M141 -5q-26 0 -45 18.5t-19 45.5t19 45.5t45 18.5t45 -18.5t19 -45.5t-19 -45.5t-45 -18.5zM403 -5q-26 0 -45 18.5t-19 45.5t19 45.5t45 18.5t45 -18.5t19 -45.5t-19 -45.5t-45 -18.5zM665 -5q-26 0 -45 18.5t-19 45.5t19 45.5t45 18.5t45 -18.5t19 -45.5t-19 -45.5
t-45 -18.5z" />
    <glyph glyph-name="perthousand" unicode="&#x2030;" horiz-adv-x="1126" 
d="M193 459q38 0 61 26t23 73q0 45 -23 72t-61 27t-61 -26t-23 -74t23 -73t61 -25zM193 395q-31 0 -59.5 12t-50.5 33.5t-35.5 51t-13.5 64.5q0 36 13 66.5t35 52t50.5 34t60.5 12.5t61 -12.5t50.5 -34t34.5 -51.5t13 -65q0 -36 -13 -65.5t-35 -51.5t-51 -34t-60 -12z
M563 715h76l-437 -715h-76zM565 56q38 0 61 26t23 73q0 45 -23 72t-61 27t-61 -26t-23 -74t23 -73t61 -25zM565 -8q-31 0 -59.5 12t-50.5 33.5t-35.5 51t-13.5 64.5q0 36 13 66.5t35 52t50.5 34t60.5 12.5t61 -12.5t50.5 -34t34.5 -51.5t13 -65q0 -36 -13 -65.5t-35 -51.5
t-51 -34t-60 -12zM933 56q38 0 61 26t23 73q0 45 -23 72t-61 27t-61 -26t-23 -74t23 -73t61 -25zM933 -8q-31 0 -59.5 12t-50.5 33.5t-35.5 51t-13.5 64.5q0 36 13 66.5t35 52t50.5 34t60.5 12.5t61 -12.5t50.5 -34t34.5 -51.5t13 -65q0 -36 -13 -65.5t-35 -51.5t-51 -34
t-60 -12z" />
    <glyph glyph-name="uni2032" unicode="&#x2032;" horiz-adv-x="212" 
d="M71 715h90l-55 -245h-60z" />
    <glyph glyph-name="uni2033" unicode="&#x2033;" horiz-adv-x="375" 
d="M71 715h90l-55 -245h-60zM234 715h90l-55 -245h-60z" />
    <glyph glyph-name="guilsinglleft" unicode="&#x2039;" horiz-adv-x="322" 
d="M59 261l130 178h82l-125 -178l125 -178h-82z" />
    <glyph glyph-name="guilsinglright" unicode="&#x203a;" horiz-adv-x="322" 
d="M176 261l-125 178h82l130 -178l-130 -178h-82z" />
    <glyph glyph-name="fraction" unicode="&#x2044;" horiz-adv-x="113" 
d="M277 715h66l-507 -715h-66z" />
    <glyph glyph-name="zero.sup" unicode="&#x2070;" horiz-adv-x="350" 
d="M170 480q77 0 77 116v14q0 54 -20 84.5t-58 30.5t-57.5 -29.5t-19.5 -86.5v-14q0 -57 20 -86t58 -29zM169 426q-68 0 -106.5 46t-38.5 122v14q0 78 39.5 123.5t105.5 45.5t105.5 -45t39.5 -122v-14q0 -76 -38 -123t-107 -47z" />
    <glyph glyph-name="four.sup" unicode="&#x2074;" horiz-adv-x="318" 
d="M183 500h-172v24l153 249h83v-224h45v-49h-45v-69h-64v69zM184 549v173l-101 -173h101z" />
    <glyph glyph-name="five.sup" unicode="&#x2075;" horiz-adv-x="303" 
d="M145 426q-61 0 -91 29.5t-33 74.5h63q4 -23 16 -37.5t45 -14.5q28 0 43 18t15 49q0 30 -15.5 47.5t-43.5 17.5q-26 0 -42.5 -7.5t-27.5 -21.5h-36l4 192h210v-52h-159l-1 -92q11 12 29 21t46 9q47 0 76 -30.5t29 -84.5q0 -55 -35 -86.5t-92 -31.5z" />
    <glyph glyph-name="six.sup" unicode="&#x2076;" horiz-adv-x="321" 
d="M165 426q-38 0 -63.5 12t-41.5 34t-23 51t-7 64v9q0 88 40.5 134.5t105.5 46.5q46 0 75 -22.5t35 -68.5h-62q-5 19 -16 29.5t-35 10.5q-35 0 -54.5 -29.5t-21.5 -86.5q12 20 32.5 32t51.5 12q49 0 81 -30t32 -81q0 -53 -34.5 -85t-94.5 -32zM165 475q28 0 45 18.5
t17 47.5q0 30 -16.5 48.5t-45.5 18.5t-47 -17.5t-18 -45.5q0 -33 18 -51.5t47 -18.5z" />
    <glyph glyph-name="seven.sup" unicode="&#x2077;" horiz-adv-x="269" 
d="M168 718h-157v55h241v-8l-124 -334h-68z" />
    <glyph glyph-name="eight.sup" unicode="&#x2078;" horiz-adv-x="314" 
d="M150 426q-26 0 -49.5 6.5t-41 19t-28 31.5t-10.5 44q0 33 17 55t46 32q-23 10 -36.5 27.5t-13.5 43.5q0 22 9.5 39t26 29t37.5 18t44 6t44 -6t37 -18t25.5 -29t9.5 -38q0 -26 -14 -43.5t-37 -27.5q30 -11 47 -32.5t17 -53.5q0 -25 -10 -44.5t-28 -32.5t-41.5 -19.5
t-50.5 -6.5zM151 476q26 0 44 14.5t18 43.5q0 27 -18 42t-44 15t-44 -15t-18 -43t18 -42.5t44 -14.5zM151 634q23 0 37.5 12.5t14.5 35.5q0 22 -15 34.5t-37 12.5q-23 0 -38 -12.5t-15 -35.5t16 -35t37 -12z" />
    <glyph glyph-name="nine.sup" unicode="&#x2079;" horiz-adv-x="321" 
d="M145 426q-53 0 -83.5 25t-36.5 70h63q5 -20 17.5 -31.5t39.5 -11.5q72 0 74 114q-12 -19 -32.5 -31t-50.5 -12q-50 0 -82 30t-32 81q0 54 34 86t94 32q69 0 102.5 -42.5t33.5 -117.5v-17q0 -85 -36 -130t-105 -45zM150 596q29 0 46.5 17.5t17.5 44.5q0 33 -17.5 52
t-46.5 19q-28 0 -45 -18.5t-17 -48.5q0 -29 16.5 -47.5t45.5 -18.5z" />
    <glyph glyph-name="plus.sup" unicode="&#x207a;" horiz-adv-x="339" 
d="M142 574h-101v53h101v106h55v-106h101v-53h-101v-105h-55v105z" />
    <glyph glyph-name="minus.sup" unicode="&#x207b;" horiz-adv-x="339" 
d="M41 627h257v-53h-257v53z" />
    <glyph glyph-name="zero.sub" unicode="&#x2080;" horiz-adv-x="350" 
d="M170 -37q77 0 77 116v14q0 54 -20 84.5t-58 30.5t-57.5 -29.5t-19.5 -86.5v-14q0 -57 20 -86t58 -29zM169 -91q-68 0 -106.5 46t-38.5 122v14q0 78 39.5 123.5t105.5 45.5t105.5 -45t39.5 -122v-14q0 -76 -38 -123t-107 -47z" />
    <glyph glyph-name="one.sub" unicode="&#x2081;" horiz-adv-x="232" 
d="M105 189l-81 -54v59l89 61h60v-342h-68v276z" />
    <glyph glyph-name="two.sub" unicode="&#x2082;" horiz-adv-x="287" 
d="M8 -75l128 136q25 26 39.5 49.5t14.5 47.5q0 23 -13 36.5t-37 13.5q-25 0 -40 -15.5t-20 -50.5h-61q3 57 35.5 87.5t87.5 30.5q54 0 84 -27.5t30 -73.5q0 -34 -18 -63.5t-48 -58.5l-73 -72h142v-51h-251v11z" />
    <glyph glyph-name="three.sub" unicode="&#x2083;" horiz-adv-x="312" 
d="M146 -91q-63 0 -96 30t-35 81h61q3 -26 18.5 -43.5t49.5 -17.5q32 0 47.5 14.5t15.5 39.5q0 54 -60 54h-26v47h25q56 0 56 49q0 20 -13 33.5t-39 13.5t-42.5 -14.5t-19.5 -40.5h-61q3 46 35.5 75.5t88.5 29.5q55 0 85 -26.5t30 -65.5q0 -29 -15.5 -47t-41.5 -27
q30 -7 48.5 -27.5t18.5 -54.5q0 -48 -35 -75.5t-95 -27.5z" />
    <glyph glyph-name="four.sub" unicode="&#x2084;" horiz-adv-x="318" 
d="M183 -17h-172v24l153 249h83v-224h45v-49h-45v-69h-64v69zM184 32v173l-101 -173h101z" />
    <glyph glyph-name="five.sub" unicode="&#x2085;" horiz-adv-x="303" 
d="M145 -91q-61 0 -91 29.5t-33 74.5h63q4 -23 16 -37.5t45 -14.5q28 0 43 18t15 49q0 30 -15.5 47.5t-43.5 17.5q-26 0 -42.5 -7.5t-27.5 -21.5h-36l4 192h210v-52h-159l-1 -92q11 12 29 21t46 9q47 0 76 -30.5t29 -84.5q0 -55 -35 -86.5t-92 -31.5z" />
    <glyph glyph-name="six.sub" unicode="&#x2086;" horiz-adv-x="321" 
d="M165 -91q-38 0 -63.5 12t-41.5 34t-23 51t-7 64v9q0 88 40.5 134.5t105.5 46.5q46 0 75 -22.5t35 -68.5h-62q-5 19 -16 29.5t-35 10.5q-35 0 -54.5 -29.5t-21.5 -86.5q12 20 32.5 32t51.5 12q49 0 81 -30t32 -81q0 -53 -34.5 -85t-94.5 -32zM165 -42q28 0 45 18.5
t17 47.5q0 30 -16.5 48.5t-45.5 18.5t-47 -17.5t-18 -45.5q0 -33 18 -51.5t47 -18.5z" />
    <glyph glyph-name="seven.sub" unicode="&#x2087;" horiz-adv-x="269" 
d="M168 201h-157v55h241v-8l-124 -334h-68z" />
    <glyph glyph-name="eight.sub" unicode="&#x2088;" horiz-adv-x="314" 
d="M150 -91q-26 0 -49.5 6.5t-41 19t-28 31.5t-10.5 44q0 33 17 55t46 32q-23 10 -36.5 27.5t-13.5 43.5q0 22 9.5 39t26 29t37.5 18t44 6t44 -6t37 -18t25.5 -29t9.5 -38q0 -26 -14 -43.5t-37 -27.5q30 -11 47 -32.5t17 -53.5q0 -25 -10 -44.5t-28 -32.5t-41.5 -19.5
t-50.5 -6.5zM151 -41q26 0 44 14.5t18 43.5q0 27 -18 42t-44 15t-44 -15t-18 -43t18 -42.5t44 -14.5zM151 117q23 0 37.5 12.5t14.5 35.5q0 22 -15 34.5t-37 12.5q-23 0 -38 -12.5t-15 -35.5t16 -35t37 -12z" />
    <glyph glyph-name="nine.sub" unicode="&#x2089;" horiz-adv-x="321" 
d="M145 -91q-53 0 -83.5 25t-36.5 70h63q5 -20 17.5 -31.5t39.5 -11.5q72 0 74 114q-12 -19 -32.5 -31t-50.5 -12q-50 0 -82 30t-32 81q0 54 34 86t94 32q69 0 102.5 -42.5t33.5 -117.5v-17q0 -85 -36 -130t-105 -45zM150 79q29 0 46.5 17.5t17.5 44.5q0 33 -17.5 52
t-46.5 19q-28 0 -45 -18.5t-17 -48.5q0 -29 16.5 -47.5t45.5 -18.5z" />
    <glyph glyph-name="plus.sub" unicode="&#x208a;" horiz-adv-x="339" 
d="M142 56h-101v53h101v106h55v-106h101v-53h-101v-105h-55v105z" />
    <glyph glyph-name="minus.sub" unicode="&#x208b;" horiz-adv-x="339" 
d="M41 109h257v-53h-257v53z" />
    <glyph glyph-name="Euro" unicode="&#x20ac;" horiz-adv-x="674" 
d="M32 452h74q6 57 26 107t54 86.5t81 57.5t106 21q103 0 167.5 -57.5t76.5 -161.5h-82q-11 72 -53.5 111.5t-108.5 39.5q-80 0 -126 -55.5t-56 -148.5h239l-11 -58h-230v-78h215l-11 -58h-201q10 -93 55.5 -144.5t127.5 -51.5q70 0 113.5 41.5t55.5 122.5h81
q-12 -112 -78.5 -173.5t-171.5 -61.5q-57 0 -104 20t-81.5 55.5t-55.5 84.5t-28 107h-74v58h71v78h-71v58z" />
    <glyph glyph-name="trademark" unicode="&#x2122;" horiz-adv-x="716" 
d="M342 715h77l90 -226l88 226h78v-322h-56v251l-103 -251h-19l-104 251v-251h-51v322zM132 671h-98v44h251v-44h-97v-278h-56v278z" />
    <glyph glyph-name="onethird" unicode="&#x2153;" horiz-adv-x="723" 
d="M108 649l-81 -54v59l89 61h60v-342h-68v276zM552 715h66l-507 -715h-66zM560 -5q-63 0 -96 30t-35 81h61q3 -26 18.5 -43.5t49.5 -17.5q32 0 47.5 14.5t15.5 39.5q0 54 -60 54h-26v47h25q56 0 56 49q0 20 -13 33.5t-39 13.5t-42.5 -14.5t-19.5 -40.5h-61q3 46 35.5 75.5
t88.5 29.5q55 0 85 -26.5t30 -65.5q0 -29 -15.5 -47t-41.5 -27q30 -7 48.5 -27.5t18.5 -54.5q0 -48 -35 -75.5t-95 -27.5z" />
    <glyph glyph-name="twothirds" unicode="&#x2154;" horiz-adv-x="760" 
d="M5 384l128 136q25 26 39.5 49.5t14.5 47.5q0 23 -13 36.5t-37 13.5q-25 0 -40 -15.5t-20 -50.5h-61q3 57 35.5 87.5t87.5 30.5q54 0 84 -27.5t30 -73.5q0 -34 -18 -63.5t-48 -58.5l-73 -72h142v-51h-251v11zM597 715h66l-507 -715h-66zM591 -5q-63 0 -96 30t-35 81h61
q3 -26 18.5 -43.5t49.5 -17.5q32 0 47.5 14.5t15.5 39.5q0 54 -60 54h-26v47h25q56 0 56 49q0 20 -13 33.5t-39 13.5t-42.5 -14.5t-19.5 -40.5h-61q3 46 35.5 75.5t88.5 29.5q55 0 85 -26.5t30 -65.5q0 -29 -15.5 -47t-41.5 -27q30 -7 48.5 -27.5t18.5 -54.5
q0 -48 -35 -75.5t-95 -27.5z" />
    <glyph glyph-name="oneeighth" unicode="&#x215b;" horiz-adv-x="720" 
d="M108 649l-81 -54v59l89 61h60v-342h-68v276zM552 715h66l-507 -715h-66zM553 -5q-26 0 -49.5 6.5t-41 19t-28 31.5t-10.5 44q0 33 17 55t46 32q-23 10 -36.5 27.5t-13.5 43.5q0 22 9.5 39t26 29t37.5 18t44 6t44 -6t37 -18t25.5 -29t9.5 -38q0 -26 -14 -43.5t-37 -27.5
q30 -11 47 -32.5t17 -53.5q0 -25 -10 -44.5t-28 -32.5t-41.5 -19.5t-50.5 -6.5zM554 45q26 0 44 14.5t18 43.5q0 27 -18 42t-44 15t-44 -15t-18 -43t18 -42.5t44 -14.5zM554 203q23 0 37.5 12.5t14.5 35.5q0 22 -15 34.5t-37 12.5q-23 0 -38 -12.5t-15 -35.5t16 -35t37 -12z
" />
    <glyph glyph-name="threeeighths" unicode="&#x215c;" horiz-adv-x="750" 
d="M155 368q-63 0 -96 30t-35 81h61q3 -26 18.5 -43.5t49.5 -17.5q32 0 47.5 14.5t15.5 39.5q0 54 -60 54h-26v47h25q56 0 56 49q0 20 -13 33.5t-39 13.5t-42.5 -14.5t-19.5 -40.5h-61q3 46 35.5 75.5t88.5 29.5q55 0 85 -26.5t30 -65.5q0 -29 -15.5 -47t-41.5 -27
q30 -7 48.5 -27.5t18.5 -54.5q0 -48 -35 -75.5t-95 -27.5zM594 715h66l-507 -715h-66zM583 -5q-26 0 -49.5 6.5t-41 19t-28 31.5t-10.5 44q0 33 17 55t46 32q-23 10 -36.5 27.5t-13.5 43.5q0 22 9.5 39t26 29t37.5 18t44 6t44 -6t37 -18t25.5 -29t9.5 -38q0 -26 -14 -43.5
t-37 -27.5q30 -11 47 -32.5t17 -53.5q0 -25 -10 -44.5t-28 -32.5t-41.5 -19.5t-50.5 -6.5zM584 45q26 0 44 14.5t18 43.5q0 27 -18 42t-44 15t-44 -15t-18 -43t18 -42.5t44 -14.5zM584 203q23 0 37.5 12.5t14.5 35.5q0 22 -15 34.5t-37 12.5q-23 0 -38 -12.5t-15 -35.5
t16 -35t37 -12z" />
    <glyph glyph-name="fiveeighths" unicode="&#x215d;" horiz-adv-x="744" 
d="M148 368q-61 0 -91 29.5t-33 74.5h63q4 -23 16 -37.5t45 -14.5q28 0 43 18t15 49q0 30 -15.5 47.5t-43.5 17.5q-26 0 -42.5 -7.5t-27.5 -21.5h-36l4 192h210v-52h-159l-1 -92q11 12 29 21t46 9q47 0 76 -30.5t29 -84.5q0 -55 -35 -86.5t-92 -31.5zM587 715h66l-507 -715
h-66zM577 -5q-26 0 -49.5 6.5t-41 19t-28 31.5t-10.5 44q0 33 17 55t46 32q-23 10 -36.5 27.5t-13.5 43.5q0 22 9.5 39t26 29t37.5 18t44 6t44 -6t37 -18t25.5 -29t9.5 -38q0 -26 -14 -43.5t-37 -27.5q30 -11 47 -32.5t17 -53.5q0 -25 -10 -44.5t-28 -32.5t-41.5 -19.5
t-50.5 -6.5zM578 45q26 0 44 14.5t18 43.5q0 27 -18 42t-44 15t-44 -15t-18 -43t18 -42.5t44 -14.5zM578 203q23 0 37.5 12.5t14.5 35.5q0 22 -15 34.5t-37 12.5q-23 0 -38 -12.5t-15 -35.5t16 -35t37 -12z" />
    <glyph glyph-name="seveneighths" unicode="&#x215e;" horiz-adv-x="716" 
d="M177 660h-157v55h241v-8l-124 -334h-68zM540 715h66l-507 -715h-66zM549 -5q-26 0 -49.5 6.5t-41 19t-28 31.5t-10.5 44q0 33 17 55t46 32q-23 10 -36.5 27.5t-13.5 43.5q0 22 9.5 39t26 29t37.5 18t44 6t44 -6t37 -18t25.5 -29t9.5 -38q0 -26 -14 -43.5t-37 -27.5
q30 -11 47 -32.5t17 -53.5q0 -25 -10 -44.5t-28 -32.5t-41.5 -19.5t-50.5 -6.5zM550 45q26 0 44 14.5t18 43.5q0 27 -18 42t-44 15t-44 -15t-18 -43t18 -42.5t44 -14.5zM550 203q23 0 37.5 12.5t14.5 35.5q0 22 -15 34.5t-37 12.5q-23 0 -38 -12.5t-15 -35.5t16 -35t37 -12z
" />
    <glyph glyph-name="minus" unicode="&#x2212;" horiz-adv-x="519" 
d="M36 377h447v-70h-447v70z" />
    <glyph glyph-name="approxequal" unicode="&#x2248;" horiz-adv-x="498" 
d="M44 166q5 60 37 89.5t73 29.5q28 0 54.5 -7t50.5 -15t45.5 -15t41.5 -7q16 0 29.5 11t15.5 35h63q-5 -62 -36.5 -90.5t-70.5 -28.5q-30 0 -56.5 7t-50.5 15t-46 15t-41 7q-17 0 -29.5 -11.5t-16.5 -34.5h-63zM44 343q5 60 37 89.5t73 29.5q28 0 54.5 -7t50.5 -15
t45.5 -15t41.5 -7q16 0 29.5 11t15.5 35h63q-5 -62 -36.5 -90.5t-70.5 -28.5q-30 0 -56.5 7t-50.5 15t-46 15t-41 7q-17 0 -29.5 -11.5t-16.5 -34.5h-63z" />
    <glyph glyph-name="notequal" unicode="&#x2260;" horiz-adv-x="484" 
d="M40 448h215l40 103h76l-40 -103h113v-72h-141l-41 -108h182v-72h-210l-40 -103h-76l40 103h-118v72h146l41 108h-187v72z" />
    <glyph glyph-name="lessequal" unicode="&#x2264;" horiz-adv-x="504" 
d="M53 324v20l384 205v-80l-260 -135l260 -135v-80zM53 70h384v-70h-384v70z" />
    <glyph glyph-name="greaterequal" unicode="&#x2265;" horiz-adv-x="504" 
d="M67 199l260 135l-260 135v80l384 -205v-20l-384 -205v80zM67 70h384v-70h-384v70z" />
    <glyph glyph-name="uni24C5" unicode="&#x24c5;" horiz-adv-x="844" 
d="M304 557h128q68 0 107.5 -29.5t39.5 -92.5v-3q0 -63 -40 -92t-104 -29h-55v-149h-76v395zM432 366q74 0 74 66v3q0 34 -19.5 48.5t-54.5 14.5h-52v-132h52zM421 33q64 0 122 24t102 67t70 103t26 132q0 71 -25.5 130.5t-69 102t-101 66.5t-122.5 24q-66 0 -124 -24
t-101.5 -67t-69 -102.5t-25.5 -131.5t26 -132t70 -102.5t101.5 -66t120.5 -23.5zM421 -9q-76 0 -143 28t-116.5 77.5t-78 116t-28.5 144.5q0 76 28.5 143t78 117t117 78.5t144.5 28.5q78 0 145 -28.5t116 -78t77 -116t28 -142.5q0 -78 -28.5 -145.5t-78 -117t-117 -77.5
t-144.5 -28z" />
    <glyph glyph-name="zero.den" unicode="&#xe402;" horiz-adv-x="350" 
d="M170 49q77 0 77 116v14q0 54 -20 84.5t-58 30.5t-57.5 -29.5t-19.5 -86.5v-14q0 -57 20 -86t58 -29zM169 -5q-68 0 -106.5 46t-38.5 122v14q0 78 39.5 123.5t105.5 45.5t105.5 -45t39.5 -122v-14q0 -76 -38 -123t-107 -47z" />
    <glyph glyph-name="one.den" unicode="&#xe403;" horiz-adv-x="232" 
d="M105 276l-81 -54v59l89 61h60v-342h-68v276z" />
    <glyph glyph-name="two.den" unicode="&#xe404;" horiz-adv-x="287" 
d="M2 11l128 136q25 26 39.5 49.5t14.5 47.5q0 23 -13 36.5t-37 13.5q-25 0 -40 -15.5t-20 -50.5h-61q3 57 35.5 87.5t87.5 30.5q54 0 84 -27.5t30 -73.5q0 -34 -18 -63.5t-48 -58.5l-73 -72h142v-51h-251v11z" />
    <glyph glyph-name="three.den" unicode="&#xe405;" horiz-adv-x="312" 
d="M152 -5q-63 0 -96 30t-35 81h61q3 -26 18.5 -43.5t49.5 -17.5q32 0 47.5 14.5t15.5 39.5q0 54 -60 54h-26v47h25q56 0 56 49q0 20 -13 33.5t-39 13.5t-42.5 -14.5t-19.5 -40.5h-61q3 46 35.5 75.5t88.5 29.5q55 0 85 -26.5t30 -65.5q0 -29 -15.5 -47t-41.5 -27
q30 -7 48.5 -27.5t18.5 -54.5q0 -48 -35 -75.5t-95 -27.5z" />
    <glyph glyph-name="four.den" unicode="&#xe406;" horiz-adv-x="318" 
d="M183 69h-172v24l153 249h83v-224h45v-49h-45v-69h-64v69zM184 118v173l-101 -173h101z" />
    <glyph glyph-name="five.den" unicode="&#xe407;" horiz-adv-x="303" 
d="M145 -5q-61 0 -91 29.5t-33 74.5h63q4 -23 16 -37.5t45 -14.5q28 0 43 18t15 49q0 30 -15.5 47.5t-43.5 17.5q-26 0 -42.5 -7.5t-27.5 -21.5h-36l4 192h210v-52h-159l-1 -92q11 12 29 21t46 9q47 0 76 -30.5t29 -84.5q0 -55 -35 -86.5t-92 -31.5z" />
    <glyph glyph-name="six.den" unicode="&#xe408;" horiz-adv-x="321" 
d="M165 -5q-38 0 -63.5 12t-41.5 34t-23 51t-7 64v9q0 88 40.5 134.5t105.5 46.5q46 0 75 -22.5t35 -68.5h-62q-5 19 -16 29.5t-35 10.5q-35 0 -54.5 -29.5t-21.5 -86.5q12 20 32.5 32t51.5 12q49 0 81 -30t32 -81q0 -53 -34.5 -85t-94.5 -32zM165 44q28 0 45 18.5t17 47.5
q0 30 -16.5 48.5t-45.5 18.5t-47 -17.5t-18 -45.5q0 -33 18 -51.5t47 -18.5z" />
    <glyph glyph-name="seven.den" unicode="&#xe409;" horiz-adv-x="269" 
d="M168 287h-157v55h241v-8l-124 -334h-68z" />
    <glyph glyph-name="eight.den" unicode="&#xe40a;" horiz-adv-x="314" 
d="M150 -5q-26 0 -49.5 6.5t-41 19t-28 31.5t-10.5 44q0 33 17 55t46 32q-23 10 -36.5 27.5t-13.5 43.5q0 22 9.5 39t26 29t37.5 18t44 6t44 -6t37 -18t25.5 -29t9.5 -38q0 -26 -14 -43.5t-37 -27.5q30 -11 47 -32.5t17 -53.5q0 -25 -10 -44.5t-28 -32.5t-41.5 -19.5
t-50.5 -6.5zM151 45q26 0 44 14.5t18 43.5q0 27 -18 42t-44 15t-44 -15t-18 -43t18 -42.5t44 -14.5zM151 203q23 0 37.5 12.5t14.5 35.5q0 22 -15 34.5t-37 12.5q-23 0 -38 -12.5t-15 -35.5t16 -35t37 -12z" />
    <glyph glyph-name="nine.den" unicode="&#xe40b;" horiz-adv-x="321" 
d="M145 -5q-53 0 -83.5 25t-36.5 70h63q5 -20 17.5 -31.5t39.5 -11.5q72 0 74 114q-12 -19 -32.5 -31t-50.5 -12q-50 0 -82 30t-32 81q0 54 34 86t94 32q69 0 102.5 -42.5t33.5 -117.5v-17q0 -85 -36 -130t-105 -45zM150 165q29 0 46.5 17.5t17.5 44.5q0 33 -17.5 52
t-46.5 19q-28 0 -45 -18.5t-17 -48.5q0 -29 16.5 -47.5t45.5 -18.5z" />
    <glyph glyph-name="zero.num" unicode="&#xe416;" horiz-adv-x="350" 
d="M176 422q77 0 77 116v14q0 54 -20 84.5t-58 30.5t-57.5 -29.5t-19.5 -86.5v-14q0 -57 20 -86t58 -29zM175 368q-68 0 -106.5 46t-38.5 122v14q0 78 39.5 123.5t105.5 45.5t105.5 -45t39.5 -122v-14q0 -76 -38 -123t-107 -47z" />
    <glyph glyph-name="one.num" unicode="&#xe417;" horiz-adv-x="231" 
d="M105 649l-81 -54v59l89 61h60v-342h-68v276z" />
    <glyph glyph-name="two.num" unicode="&#xe418;" horiz-adv-x="286" 
d="M8 384l128 136q25 26 39.5 49.5t14.5 47.5q0 23 -13 36.5t-37 13.5q-25 0 -40 -15.5t-20 -50.5h-61q3 57 35.5 87.5t87.5 30.5q54 0 84 -27.5t30 -73.5q0 -34 -18 -63.5t-48 -58.5l-73 -72h142v-51h-251v11z" />
    <glyph glyph-name="three.num" unicode="&#xe419;" horiz-adv-x="311" 
d="M152 368q-63 0 -96 30t-35 81h61q3 -26 18.5 -43.5t49.5 -17.5q32 0 47.5 14.5t15.5 39.5q0 54 -60 54h-26v47h25q56 0 56 49q0 20 -13 33.5t-39 13.5t-42.5 -14.5t-19.5 -40.5h-61q3 46 35.5 75.5t88.5 29.5q55 0 85 -26.5t30 -65.5q0 -29 -15.5 -47t-41.5 -27
q30 -7 48.5 -27.5t18.5 -54.5q0 -48 -35 -75.5t-95 -27.5z" />
    <glyph glyph-name="four.num" unicode="&#xe41a;" horiz-adv-x="317" 
d="M189 442h-172v24l153 249h83v-224h45v-49h-45v-69h-64v69zM190 491v173l-101 -173h101z" />
    <glyph glyph-name="five.num" unicode="&#xe41b;" horiz-adv-x="302" 
d="M145 368q-61 0 -91 29.5t-33 74.5h63q4 -23 16 -37.5t45 -14.5q28 0 43 18t15 49q0 30 -15.5 47.5t-43.5 17.5q-26 0 -42.5 -7.5t-27.5 -21.5h-36l4 192h210v-52h-159l-1 -92q11 12 29 21t46 9q47 0 76 -30.5t29 -84.5q0 -55 -35 -86.5t-92 -31.5z" />
    <glyph glyph-name="six.num" unicode="&#xe41c;" horiz-adv-x="320" 
d="M165 368q-38 0 -63.5 12t-41.5 34t-23 51t-7 64v9q0 88 40.5 134.5t105.5 46.5q46 0 75 -22.5t35 -68.5h-62q-5 19 -16 29.5t-35 10.5q-35 0 -54.5 -29.5t-21.5 -86.5q12 20 32.5 32t51.5 12q49 0 81 -30t32 -81q0 -53 -34.5 -85t-94.5 -32zM165 417q28 0 45 18.5
t17 47.5q0 30 -16.5 48.5t-45.5 18.5t-47 -17.5t-18 -45.5q0 -33 18 -51.5t47 -18.5z" />
    <glyph glyph-name="seven.num" unicode="&#xe41d;" horiz-adv-x="268" 
d="M174 660h-157v55h241v-8l-124 -334h-68z" />
    <glyph glyph-name="eight.num" unicode="&#xe41e;" horiz-adv-x="313" 
d="M156 368q-26 0 -49.5 6.5t-41 19t-28 31.5t-10.5 44q0 33 17 55t46 32q-23 10 -36.5 27.5t-13.5 43.5q0 22 9.5 39t26 29t37.5 18t44 6t44 -6t37 -18t25.5 -29t9.5 -38q0 -26 -14 -43.5t-37 -27.5q30 -11 47 -32.5t17 -53.5q0 -25 -10 -44.5t-28 -32.5t-41.5 -19.5
t-50.5 -6.5zM157 418q26 0 44 14.5t18 43.5q0 27 -18 42t-44 15t-44 -15t-18 -43t18 -42.5t44 -14.5zM157 576q23 0 37.5 12.5t14.5 35.5q0 22 -15 34.5t-37 12.5q-23 0 -38 -12.5t-15 -35.5t16 -35t37 -12z" />
    <glyph glyph-name="nine.num" unicode="&#xe41f;" horiz-adv-x="320" 
d="M151 368q-53 0 -83.5 25t-36.5 70h63q5 -20 17.5 -31.5t39.5 -11.5q72 0 74 114q-12 -19 -32.5 -31t-50.5 -12q-50 0 -82 30t-32 81q0 54 34 86t94 32q69 0 102.5 -42.5t33.5 -117.5v-17q0 -85 -36 -130t-105 -45zM156 538q29 0 46.5 17.5t17.5 44.5q0 33 -17.5 52
t-46.5 19q-28 0 -45 -18.5t-17 -48.5q0 -29 16.5 -47.5t45.5 -18.5z" />
    <glyph glyph-name="f_i" unicode="&#xfb01;" horiz-adv-x="597" 
d="M96 453h-75v70h75v85q0 80 38 124t116 44q20 0 32.5 -1.5t24.5 -6.5v-70q-11 5 -24 7t-30 2q-40 0 -57 -25t-17 -65v-94h128v-70h-128v-453h-83v453zM422 523h83v-523h-83v523zM462 632q-23 0 -39 16t-16 39t16 39t39 16t39 -16t16 -39t-16 -39t-39 -16z" />
    <glyph glyph-name="f_l" unicode="&#xfb02;" horiz-adv-x="592" 
d="M96 453h-75v70h75v85q0 80 38 124t116 44q20 0 32.5 -1.5t24.5 -6.5v-70q-11 5 -24 7t-30 2q-40 0 -57 -25t-17 -65v-94h128v-70h-128v-453h-83v453zM422 773h84v-773h-84v773z" />
    <glyph glyph-name="idotaccent" horiz-adv-x="255" 
d="M126 632q-23 0 -39 16t-16 39t16 39t39 16t39 -16t16 -39t-16 -39t-39 -16zM86 523h83v-523h-83v523z" />
    <glyph glyph-name="space_uni0326" horiz-adv-x="412" 
d="M134 -194l58 157l80 -24l-87 -159z" />
    <glyph glyph-name="dollar.old" horiz-adv-x="608" 
d="M276 -8q-62 4 -104.5 23.5t-69.5 49t-40.5 67t-17.5 79.5h81q4 -28 11.5 -54t23.5 -46.5t44 -34.5t72 -18v270q-48 9 -86 23t-64 35.5t-40 52.5t-14 75q0 38 15 71t42 58t64.5 40t82.5 18v88h58v-89q88 -9 140 -56.5t61 -132.5h-75q-22 109 -126 122v-242q53 -9 93.5 -23
t67.5 -36.5t41 -55.5t14 -80q0 -41 -16 -77t-44.5 -63t-68.5 -44t-87 -20v-123h-58v123zM469 190q0 27 -6.5 47.5t-22 35.5t-41.5 26t-65 19v-260q29 3 54 14t43 28t28 40t10 50zM148 522q0 -23 5 -41.5t19 -33t39 -26t65 -19.5v233q-61 -5 -94.5 -36.5t-33.5 -76.5z" />
    <glyph glyph-name="Euro.old" horiz-adv-x="654" 
d="M31 438h71q6 56 25.5 104t52.5 83.5t78.5 56t103.5 20.5q100 0 162.5 -55.5t73.5 -156.5h-79q-11 70 -52 108t-105 38q-79 0 -123 -53.5t-54 -144.5h232l-11 -56h-223v-75h209l-11 -57h-195q10 -90 53.5 -140t124.5 -50q68 0 110 40t54 119h78q-6 -54 -25.5 -96
t-50.5 -71.5t-73 -45t-93 -15.5q-56 0 -101.5 19t-78.5 53.5t-54 82t-27 104.5h-72v57h69v75h-69v56z" />
    <glyph glyph-name="sterling.old" horiz-adv-x="578" 
d="M47 366h62q-8 31 -12.5 64.5t-4.5 71.5q0 45 16.5 81.5t45 63t68 41t84.5 14.5q94 0 147 -49.5t60 -133.5h-81q-11 56 -38.5 85t-87.5 29q-57 0 -92.5 -36t-35.5 -96q0 -39 4.5 -71.5t11.5 -63.5h207v-60h-194q6 -29 10.5 -60t4.5 -68q0 -18 -3.5 -34t-9.5 -30
q24 -6 47.5 -14.5t45 -17t40.5 -14.5t34 -6q39 0 62.5 17.5t26.5 65.5h70q-4 -67 -42 -110.5t-107 -43.5q-32 0 -62 9.5t-57 21t-51 21t-45 9.5q-32 0 -46.5 -16.5t-16.5 -35.5h-71q1 16 7.5 34.5t18.5 35.5t30 30t43 18q5 13 8.5 27.5t3.5 32.5q0 32 -7 63.5t-16 64.5h-78
v60z" />
    <glyph glyph-name="yen.old" horiz-adv-x="559" 
d="M81 329h151l-205 365h91l170 -315l162 315h82l-194 -365h152v-56h-163v-76h163v-56h-163v-141h-83v141h-163v56h163v76h-163v56z" />
    <glyph glyph-name="zero.old" horiz-adv-x="643" 
d="M323 62q87 0 132.5 59t45.5 172v36q0 109 -47 169.5t-132 60.5t-132.5 -59t-47.5 -171v-37q0 -113 48 -171.5t133 -58.5zM323 -9q-60 0 -109.5 21.5t-84.5 61t-54.5 94.5t-19.5 123v37q0 69 19 124.5t54 94.5t84.5 60t109.5 21q61 0 110 -21.5t83.5 -60.5t53.5 -94
t19 -122v-37q0 -69 -18.5 -124.5t-53 -95t-83.5 -61t-110 -21.5z" />
    <glyph glyph-name="one.old" horiz-adv-x="387" 
d="M193 534l-158 -112v80l164 117h79v-619h-85v534z" />
    <glyph glyph-name="two.old" horiz-adv-x="541" 
d="M23 20l251 234q25 24 47 46t38 44.5t25 46.5t9 52q0 54 -33 85.5t-93 31.5t-97.5 -36t-48.5 -117h-77q4 49 21 89.5t45.5 69.5t68 45.5t88.5 16.5q48 0 87.5 -13.5t67 -38t43 -58.5t15.5 -75q0 -34 -13 -64t-35 -59t-52.5 -58t-64.5 -61l-141 -131h312v-70h-463v20z" />
    <glyph glyph-name="three.old" horiz-adv-x="593" 
d="M288 -105q-57 0 -102 17t-76.5 46.5t-48.5 69.5t-19 87h79q3 -33 14 -61t31 -48t51 -31.5t73 -11.5q84 0 122.5 39t38.5 104q0 71 -38.5 104t-114.5 33h-50v71h46q70 0 101.5 33t31.5 92q0 53 -30.5 86.5t-96.5 33.5q-67 0 -107.5 -37t-47.5 -100h-75q2 42 19 79.5
t47 65.5t71.5 44.5t92.5 16.5t90 -15.5t66 -41t40.5 -59.5t13.5 -71q0 -61 -30 -99.5t-79 -58.5q63 -17 100 -59.5t37 -117.5q0 -49 -18.5 -88t-51.5 -66.5t-79 -42t-101 -14.5z" />
    <glyph glyph-name="four.old" horiz-adv-x="617" 
d="M397 57h-367v28l336 533h114v-494h101v-67h-101v-154h-83v154zM397 124v428l-260 -428h260z" />
    <glyph glyph-name="five.old" horiz-adv-x="569" 
d="M276 -105q-56 0 -98 14.5t-70.5 40.5t-44.5 62t-20 78h79q5 -29 14.5 -52t27.5 -40t45 -26t66 -9q70 0 111 45.5t41 124.5q0 36 -10.5 66t-29.5 51.5t-45.5 33.5t-59.5 12q-61 0 -100 -17.5t-67 -49.5h-30v390h392v-73h-323v-229q21 20 57.5 33.5t86.5 13.5
q46 0 86 -16.5t68.5 -46.5t45 -72.5t16.5 -95.5q0 -55 -19 -99t-51 -75t-75.5 -47.5t-92.5 -16.5z" />
    <glyph glyph-name="six.old" horiz-adv-x="611" 
d="M313 -9q-72 0 -120.5 25t-78 68.5t-42.5 101.5t-13 124v30q0 94 20 166t56.5 120.5t87 73t110.5 24.5q82 0 137.5 -42.5t69.5 -127.5h-81q-12 49 -42 75t-90 26q-80 0 -130 -73t-53 -221q25 42 72.5 68t108.5 26q52 0 95 -18t73 -49t46.5 -73t16.5 -90q0 -53 -17 -96
t-49 -73.5t-77 -47.5t-100 -17zM313 58q34 0 63 11.5t49.5 33t32 51.5t11.5 67q0 76 -42.5 121.5t-114.5 45.5q-35 0 -65 -11.5t-52 -32t-34 -49t-12 -62.5q0 -43 12.5 -75.5t34.5 -54.5t52 -33.5t65 -11.5z" />
    <glyph glyph-name="seven.old" horiz-adv-x="523" 
d="M391 550h-362v68h468v-12l-289 -703h-87z" />
    <glyph glyph-name="eight.old" horiz-adv-x="595" 
d="M298 -9q-44 0 -87.5 13t-78.5 39.5t-57 65.5t-22 91q0 36 11 65.5t30.5 52t44.5 38.5t54 26q-51 19 -82 58t-31 96q0 45 18.5 80t49 59t70 36.5t80.5 12.5q42 0 81 -13t69 -37t48.5 -58.5t18.5 -77.5q0 -58 -32 -96.5t-83 -58.5q63 -22 102.5 -67t39.5 -114
q0 -52 -21 -91.5t-55.5 -66t-78.5 -40t-89 -13.5zM298 61q33 0 61.5 9.5t50 28t33.5 45t12 61.5q0 34 -12.5 60t-33.5 44t-49 27t-60 9t-61 -9.5t-51 -27.5t-35 -44.5t-13 -60.5t13 -60.5t35 -44.5t50.5 -27.5t59.5 -9.5zM301 413q57 0 92.5 32.5t35.5 91.5q0 54 -37.5 87
t-93.5 33q-28 0 -52 -8.5t-42 -24t-28 -38.5t-10 -51q0 -29 11 -51.5t29.5 -38.5t43 -24t51.5 -8z" />
    <glyph glyph-name="nine.old" horiz-adv-x="611" 
d="M284 -105q-96 0 -153 49t-70 131h81q6 -24 17 -44t29 -35t43 -23.5t60 -8.5q95 0 134 73t42 221q-25 -42 -72.5 -68t-108.5 -26q-53 0 -95.5 18t-72.5 49t-46.5 73t-16.5 90q0 52 17 95.5t49 74t76.5 47.5t100.5 17q72 0 120.5 -25t78 -68.5t42.5 -101.5t13 -124v-30
q0 -190 -67 -287t-201 -97zM299 231q35 0 65 11.5t51.5 32t34 49t12.5 62.5q0 43 -12.5 75.5t-34.5 54.5t-52 33.5t-65 11.5t-63.5 -11.5t-49 -33t-32 -51.5t-11.5 -67q0 -76 42.5 -121.5t114.5 -45.5z" />
    <glyph glyph-name="space.tab" horiz-adv-x="300" 
 />
    <glyph glyph-name="dollar.tab" 
d="M272 -8q-64 4 -108 24t-71.5 50.5t-42 69.5t-18.5 82h84q4 -29 11.5 -56t24.5 -48t45.5 -35.5t74.5 -18.5v278q-50 9 -89 23.5t-66 37t-41.5 54.5t-14.5 77q0 39 15.5 73t43 59.5t66.5 41.5t86 19v90h59v-91q91 -8 144.5 -57.5t63.5 -137.5h-78q-11 58 -42.5 88.5
t-87.5 38.5v-250q55 -10 97 -24.5t70 -38t42 -57.5t14 -82q0 -43 -16.5 -80t-46 -65t-70.5 -45t-90 -20v-127h-59v127zM471 196q0 28 -6.5 48.5t-22.5 36.5t-43 27t-68 20v-268q30 3 55.5 14t44.5 29t29.5 41.5t10.5 51.5zM140 538q0 -24 5 -43t19.5 -34t40 -26.5
t67.5 -20.5v241q-63 -5 -97.5 -37.5t-34.5 -79.5z" />
    <glyph glyph-name="cent.tab" 
d="M285 -7q-49 5 -89.5 25.5t-70 54.5t-46 80.5t-16.5 102.5v8q0 55 17 101.5t47 81t70.5 56t87.5 27.5v99h59v-99q37 -3 70.5 -14.5t60.5 -33.5t45 -55t24 -78h-82q-8 53 -41 80t-77 32v-399q24 3 45.5 12.5t38.5 25.5t28 38t14 50h77q-4 -39 -20.5 -73t-43 -60t-62 -42
t-77.5 -20v-128h-59v128zM149 256q0 -86 36.5 -134.5t99.5 -59.5v398q-60 -11 -98 -62.5t-38 -133.5v-8z" />
    <glyph glyph-name="Euro.tab" 
d="M15 452h61q4 63 22 113t49.5 85.5t75.5 54.5t100 19q93 0 149 -56t68 -160h-82q-11 72 -43 110t-92 38q-77 0 -116 -52t-44 -152h220l-11 -58h-210v-78h195l-11 -58h-183q5 -100 44.5 -148t117.5 -48q63 0 98.5 39.5t47.5 120.5h81q-12 -112 -72.5 -171.5t-154.5 -59.5
q-109 0 -174.5 68.5t-73.5 198.5h-62v58h61v78h-61v58z" />
    <glyph glyph-name="sterling.tab" 
d="M50 377h65q-8 32 -13 66.5t-5 74.5q0 46 17 84t46.5 65t69.5 42t87 15q97 0 152 -51.5t62 -137.5h-84q-5 28 -14.5 50t-24.5 37t-37.5 23t-53.5 8q-58 0 -95 -37t-37 -99q0 -41 5 -74.5t12 -65.5h213v-62h-199q6 -30 10.5 -62t4.5 -70q0 -34 -13 -65q25 -6 49 -15t46 -18
t41.5 -15t35.5 -6q40 0 64 18.5t27 67.5h73q-5 -69 -44 -114t-110 -45q-33 0 -64 10t-59 21.5t-53 21.5t-46 10q-33 0 -48 -17t-17 -37h-73q1 17 8 36.5t19.5 36.5t31 30.5t44.5 18.5q5 13 8.5 28t3.5 34q0 33 -7 65t-16 66h-82v62z" />
    <glyph glyph-name="yen.tab" 
d="M96 339h156l-202 376h94l165 -324l157 324h84l-190 -376h157v-58h-168v-78h168v-58h-168v-145h-85v145h-168v58h168v78h-168v58z" />
    <glyph glyph-name="florin.tab" 
d="M111 413h117l23 152q12 78 54 118.5t115 40.5q22 0 38 -3t30 -8v-70q-11 5 -27.5 8.5t-38.5 3.5q-42 0 -62.5 -26.5t-26.5 -67.5l-23 -148h142v-68h-152l-80 -527h-83l80 527h-106v68z" />
    <glyph glyph-name="zero.tab" 
d="M304 63q84 0 120.5 53.5t36.5 178.5v130q0 229 -159 229q-81 0 -121.5 -57t-40.5 -179v-125q0 -125 42.5 -177.5t121.5 -52.5zM304 -9q-56 0 -102.5 19t-80 56.5t-52 94t-18.5 131.5v125q0 76 17.5 133.5t50.5 96t79.5 58t103.5 19.5q117 0 182 -76t65 -224v-130
q0 -151 -64.5 -227t-180.5 -76z" />
    <glyph glyph-name="one.tab" 
d="M314 627l-205 -164v81l201 171h91v-715h-87v627z" />
    <glyph glyph-name="two.tab" 
d="M42 20l284 299q49 52 76 102t27 105q0 60 -33.5 94t-94.5 34q-63 0 -101.5 -37t-49.5 -122h-81q4 52 21.5 94.5t47.5 72.5t71 46t92 16q49 0 89 -14t68.5 -40.5t43.5 -63.5t15 -83q0 -66 -39 -130.5t-105 -129.5l-197 -192h345v-71h-479v20z" />
    <glyph glyph-name="three.tab" 
d="M288 -9q-56 0 -100.5 17t-75.5 46.5t-48.5 69.5t-19.5 87h80q3 -32 13.5 -59.5t30 -47.5t50 -31.5t72.5 -11.5q85 0 123 37.5t38 100.5q0 139 -151 139h-54v73h50q70 0 103.5 31.5t33.5 90.5q0 51 -31 85.5t-97 34.5q-67 0 -108 -37t-48 -98h-76q2 42 19.5 79.5
t47.5 65.5t72 44.5t93 16.5t90.5 -15.5t67 -42t41.5 -60.5t14 -71q0 -61 -32.5 -98.5t-83.5 -57.5q63 -17 100.5 -61t37.5 -119q0 -49 -18.5 -87.5t-52 -65.5t-80 -41t-101.5 -14z" />
    <glyph glyph-name="four.tab" 
d="M389 150h-348v28l317 537h116v-494h84v-71h-84v-150h-85v150zM389 221v423l-240 -423h240z" />
    <glyph glyph-name="five.tab" 
d="M288 -9q-58 0 -101 15t-72 42t-45 64t-20 81h83q5 -29 14.5 -53.5t27 -42t44.5 -27t68 -9.5q73 0 115 46t42 127q0 76 -40.5 121.5t-109.5 45.5q-63 0 -101.5 -18.5t-67.5 -50.5h-32v383h402v-75h-330v-218q22 20 58.5 34.5t87.5 14.5q48 0 88.5 -16.5t70.5 -47.5
t46.5 -74.5t16.5 -98.5q0 -57 -19 -102t-52.5 -76.5t-78 -48t-95.5 -16.5z" />
    <glyph glyph-name="six.tab" 
d="M308 -9q-73 0 -122.5 25.5t-79.5 70t-42.5 103.5t-12.5 126v17q0 96 20.5 169.5t58 122.5t88.5 74t113 25q84 0 139.5 -43t69.5 -130h-83q-12 50 -42 76t-90 26q-81 0 -133 -72t-55 -214q26 44 73.5 70.5t110.5 26.5q53 0 96.5 -18t74 -49.5t47 -74.5t16.5 -92
q0 -54 -17.5 -98t-49.5 -75.5t-77.5 -48.5t-102.5 -17zM308 59q35 0 64 12t50 33.5t32.5 52.5t11.5 69q0 78 -43 124t-116 46q-36 0 -66 -11.5t-52 -32.5t-34 -50t-12 -64q0 -88 46.5 -133.5t118.5 -45.5z" />
    <glyph glyph-name="seven.tab" 
d="M429 645h-359v70h471v-12l-286 -703h-89z" />
    <glyph glyph-name="eight.tab" 
d="M301 -9q-44 0 -88 13t-79.5 39.5t-57.5 66.5t-22 93q0 72 39 118.5t96 66.5q-51 20 -79.5 58.5t-28.5 91.5q0 43 19 77.5t50 58.5t70.5 37t80.5 13q42 0 81 -13t70 -37t49.5 -58t18.5 -76q0 -54 -30 -91.5t-80 -59.5q63 -23 100 -69t37 -115q0 -54 -21.5 -94t-56 -66.5
t-79 -40t-89.5 -13.5zM301 62q33 0 61.5 9.5t50 28t33.5 45.5t12 63q0 35 -12.5 61.5t-33.5 44.5t-49 27t-60 9t-61 -9t-51 -27t-35 -45t-13 -63q0 -35 13 -62t35 -45t50.5 -27.5t59.5 -9.5zM304 419q57 0 92.5 31.5t35.5 88.5q0 26 -10 47.5t-27.5 37t-41.5 24t-52 8.5
t-52 -8t-42 -23.5t-28 -37.5t-10 -50t11 -50t29.5 -37t43 -23t51.5 -8z" />
    <glyph glyph-name="nine.tab" 
d="M280 -8q-100 0 -158 48.5t-72 135.5h84q12 -53 45.5 -83t102.5 -30q86 0 133.5 70.5t49.5 213.5q-26 -44 -74.5 -69.5t-110.5 -25.5q-52 0 -95.5 17.5t-74.5 49t-48 74t-17 93.5q0 54 17.5 98t49.5 75.5t77.5 48.5t102.5 17q128 0 192.5 -82.5t64.5 -237.5v-45
q0 -179 -70 -273.5t-199 -94.5zM293 320q36 0 66 11t52 31.5t34 49t12 63.5q0 88 -46.5 135t-118.5 47q-35 0 -64 -12t-50 -33.5t-32.5 -52.5t-11.5 -69q0 -78 43 -124t116 -46z" />
    <glyph glyph-name="percent.tab" horiz-adv-x="800" 
d="M200 448q41 0 64.5 26.5t23.5 77.5q0 48 -23.5 76t-64.5 28q-40 0 -64 -27t-24 -78t24 -77t64 -26zM200 383q-32 0 -61.5 12.5t-52.5 34.5t-36.5 53t-13.5 67q0 37 13.5 68.5t36 54t52 35.5t62.5 13t63 -13t52.5 -35.5t35.5 -53.5t13 -67q0 -37 -13.5 -68t-36 -53.5
t-52.5 -35t-62 -12.5zM574 715h76l-437 -715h-76zM588 57q41 0 64.5 26.5t23.5 77.5q0 48 -23.5 76t-64.5 28q-40 0 -64 -27t-24 -78t24 -77t64 -26zM588 -8q-32 0 -61.5 12.5t-52.5 34.5t-36.5 53t-13.5 67q0 37 13.5 68.5t36 54t52 35.5t62.5 13t63 -13t52.5 -35.5
t35.5 -53.5t13 -67q0 -37 -13.5 -68t-36 -53.5t-52.5 -35t-62 -12.5z" />
    <glyph glyph-name="perthousand.tab" horiz-adv-x="1000" 
d="M180 459q29 0 45 26t16 73q0 45 -16 72t-45 27t-45 -26t-16 -74t16 -73t45 -25zM180 395q-26 0 -50.5 11t-43.5 31.5t-30 50.5t-11 68q0 40 11 70.5t30 51.5t43 32t51 11t51.5 -11t43 -31.5t29.5 -51t11 -69.5t-11 -69.5t-30 -51t-43 -31.5t-51 -11zM528 715h76
l-437 -715h-76zM512 56q29 0 45 26t16 73q0 45 -16 72t-45 27t-45 -26t-16 -74t16 -73t45 -25zM512 -8q-26 0 -50.5 11t-43.5 31.5t-30 50.5t-11 68q0 40 11 70.5t30 51.5t43 32t51 11t51.5 -11t43 -31.5t29.5 -51t11 -69.5t-11 -69.5t-30 -51t-43 -31.5t-51 -11zM820 56
q29 0 45 26t16 73q0 45 -16 72t-45 27t-45 -26t-16 -74t16 -73t45 -25zM820 -8q-26 0 -50.5 11t-43.5 31.5t-30 50.5t-11 68q0 40 11 70.5t30 51.5t43 32t51 11t51.5 -11t43 -31.5t29.5 -51t11 -69.5t-11 -69.5t-30 -51t-43 -31.5t-51 -11z" />
    <glyph glyph-name="plus.tab" 
d="M258 307h-187v70h187v202h73v-202h187v-70h-187v-202h-73v202z" />
    <glyph glyph-name="minus.tab" 
d="M71 377h447v-70h-447v70z" />
    <glyph glyph-name="plusminus.tab" 
d="M258 327h-187v70h187v182h73v-182h187v-70h-187v-182h-73v182zM71 70h447v-70h-447v70z" />
    <glyph glyph-name="multiply.tab" 
d="M93 179l154 154l-154 154l47 48l154 -155l154 155l48 -48l-154 -154l154 -154l-48 -48l-154 155l-154 -155z" />
    <glyph glyph-name="divide.tab" 
d="M300 89q-26 0 -45 18.5t-19 45.5t19 45.5t45 18.5t45 -18.5t19 -45.5t-19 -45.5t-45 -18.5zM77 377h447v-70h-447v70zM300 467q-26 0 -45 18.5t-19 45.5t19 45.5t45 18.5t45 -18.5t19 -45.5t-19 -45.5t-45 -18.5z" />
    <glyph glyph-name="equal.tab" 
d="M98 268h404v-72h-404v72zM98 448h404v-72h-404v72z" />
    <glyph glyph-name="notequal.tab" 
d="M92 448h215l40 103h76l-40 -103h113v-72h-141l-41 -108h182v-72h-210l-40 -103h-76l40 103h-118v72h146l41 108h-187v72z" />
    <glyph glyph-name="approxequal.tab" 
d="M89 166q5 60 37 89.5t73 29.5q28 0 54.5 -7t50.5 -15t45.5 -15t41.5 -7q16 0 29.5 11t15.5 35h63q-5 -62 -36.5 -90.5t-70.5 -28.5q-30 0 -56.5 7t-50.5 15t-46 15t-41 7q-17 0 -29.5 -11.5t-16.5 -34.5h-63zM89 343q5 60 37 89.5t73 29.5q28 0 54.5 -7t50.5 -15
t45.5 -15t41.5 -7q16 0 29.5 11t15.5 35h63q-5 -62 -36.5 -90.5t-70.5 -28.5q-30 0 -56.5 7t-50.5 15t-46 15t-41 7q-17 0 -29.5 -11.5t-16.5 -34.5h-63z" />
    <glyph glyph-name="less.tab" 
d="M95 312v20l384 217v-80l-263 -147l263 -147v-80z" />
    <glyph glyph-name="greater.tab" 
d="M109 175l263 147l-263 147v80l384 -217v-20l-384 -217v80z" />
    <glyph glyph-name="lessequal.tab" 
d="M95 324v20l384 205v-80l-260 -135l260 -135v-80zM95 70h384v-70h-384v70z" />
    <glyph glyph-name="greaterequal.tab" 
d="M115 199l260 135l-260 135v80l384 -205v-20l-384 -205v80zM115 70h384v-70h-384v70z" />
    <glyph glyph-name="period.tab" horiz-adv-x="300" 
d="M150 -5q-26 0 -45 18.5t-19 45.5t19 45.5t45 18.5t45 -18.5t19 -45.5t-19 -45.5t-45 -18.5z" />
    <glyph glyph-name="comma.tab" horiz-adv-x="300" 
d="M45 -95l96 219l81 -38l-123 -209z" />
    <glyph glyph-name="colon.tab" horiz-adv-x="300" 
d="M150 -5q-26 0 -45 18.5t-19 45.5t19 45.5t45 18.5t45 -18.5t19 -45.5t-19 -45.5t-45 -18.5zM150 292q-26 0 -45 18.5t-19 45.5t19 45.5t45 18.5t45 -18.5t19 -45.5t-19 -45.5t-45 -18.5z" />
    <glyph glyph-name="semicolon.tab" horiz-adv-x="300" 
d="M25 -95l96 219l81 -38l-123 -209zM159 292q-26 0 -45 18.5t-19 45.5t19 45.5t45 18.5t45 -18.5t19 -45.5t-19 -45.5t-45 -18.5z" />
    <glyph glyph-name="parenleft.tab" horiz-adv-x="300" 
d="M188 -148q-27 40 -51.5 89t-43.5 106.5t-30 123.5t-11 141t11 141t30 123.5t43.5 106.5t51.5 90h83q-26 -42 -50 -91t-42 -106t-29 -122.5t-11 -141.5t11 -141.5t29 -122.5t42 -105.5t50 -90.5h-83z" />
    <glyph glyph-name="parenright.tab" horiz-adv-x="300" 
d="M29 -148q26 42 50 90.5t42 105.5t29 122.5t11 141.5t-11 141.5t-29 122.5t-42 106t-50 91h83q27 -41 51.5 -90t43.5 -106.5t30 -123.5t11 -141t-11 -141t-30 -123.5t-43.5 -106.5t-51.5 -89h-83z" />
    <glyph glyph-name="bracketleft.tab" horiz-adv-x="300" 
d="M70 776h194v-66h-111v-792h111v-66h-194v924z" />
    <glyph glyph-name="bracketright.tab" horiz-adv-x="300" 
d="M36 -82h111v792h-111v66h194v-924h-194v66z" />
    <glyph glyph-name="braceleft.tab" horiz-adv-x="300" 
d="M264 -147q-48 0 -84 11.5t-58.5 36t-29.5 64t3 96.5l19 104q4 22 2.5 41t-11.5 34t-29 26t-50 19v62q31 7 50 18.5t29 26.5t11.5 34t-2.5 41l-19 104q-10 57 -3 96.5t29.5 64t58.5 36t84 11.5v-63q-29 0 -49.5 -7t-31.5 -24t-13.5 -45t4.5 -71l19 -115q9 -56 -19.5 -87
t-78.5 -51q50 -20 78.5 -51t19.5 -87l-19 -115q-7 -43 -4.5 -71t13.5 -45t31.5 -24t49.5 -7v-63z" />
    <glyph glyph-name="braceright.tab" horiz-adv-x="300" 
d="M36 -84q29 0 49.5 7t31.5 24t13.5 45t-4.5 71l-19 115q-9 56 19.5 87t78.5 51q-50 20 -78.5 51t-19.5 87l19 115q7 43 4.5 71t-13.5 45t-31.5 24t-49.5 7v63q48 0 84 -11.5t58.5 -36t29.5 -64t-3 -96.5l-19 -104q-4 -22 -2.5 -41t11.5 -34t29 -26.5t50 -18.5v-62
q-31 -8 -50 -19t-29 -26t-11.5 -34t2.5 -41l19 -104q10 -57 3 -96.5t-29.5 -64t-58.5 -36t-84 -11.5v63z" />
    <glyph glyph-name="dollar.oldtab" 
d="M272 -8q-62 4 -104.5 23.5t-69.5 49t-40.5 67t-17.5 79.5h81q4 -28 11.5 -54t23.5 -46.5t44 -34.5t72 -18v270q-48 9 -86 23t-64 35.5t-40 52.5t-14 75q0 38 15 71t42 58t64.5 40t82.5 18v88h58v-89q88 -9 140 -56.5t61 -132.5h-75q-22 109 -126 122v-242q53 -9 93.5 -23
t67.5 -36.5t41 -55.5t14 -80q0 -41 -16 -77t-44.5 -63t-68.5 -44t-87 -20v-123h-58v123zM465 190q0 27 -6.5 47.5t-22 35.5t-41.5 26t-65 19v-260q29 3 54 14t43 28t28 40t10 50zM144 522q0 -23 5 -41.5t19 -33t39 -26t65 -19.5v233q-61 -5 -94.5 -36.5t-33.5 -76.5z" />
    <glyph glyph-name="Euro.oldtab" 
d="M35 438h59q7 123 68.5 193.5t170.5 70.5q91 0 145 -54t66 -155h-80q-10 70 -41.5 106.5t-89.5 36.5q-74 0 -112 -50.5t-43 -147.5h214l-11 -56h-204v-75h189l-10 -57h-178q5 -97 43.5 -143.5t113.5 -46.5q62 0 96 38.5t46 116.5h78q-11 -108 -70 -166t-150 -58
q-106 0 -169 67t-71 192h-60v57h59v75h-59v56z" />
    <glyph glyph-name="sterling.oldtab" 
d="M58 366h62q-8 31 -12.5 64.5t-4.5 71.5q0 45 16.5 81.5t45 63t68 41t84.5 14.5q94 0 147 -49.5t60 -133.5h-81q-11 56 -38.5 85t-87.5 29q-57 0 -92.5 -36t-35.5 -96q0 -39 4.5 -71.5t11.5 -63.5h207v-60h-194q6 -29 10.5 -60t4.5 -68q0 -18 -3.5 -34t-9.5 -30
q24 -6 47.5 -14.5t45 -17t40.5 -14.5t34 -6q39 0 62.5 17.5t26.5 65.5h70q-4 -67 -42 -110.5t-107 -43.5q-32 0 -62 9.5t-57 21t-51 21t-45 9.5q-32 0 -46.5 -16.5t-16.5 -35.5h-71q1 16 7.5 34.5t18.5 35.5t30 30t43 18q5 13 8.5 27.5t3.5 32.5q0 32 -7 63.5t-16 64.5h-78
v60z" />
    <glyph glyph-name="yen.oldtab" 
d="M102 329h151l-196 365h92l160 -315l153 315h81l-184 -365h152v-56h-163v-76h163v-56h-163v-141h-83v141h-163v56h163v76h-163v56z" />
    <glyph glyph-name="zero.oldtab" 
d="M302 62q80 0 118.5 53t38.5 145v102q0 88 -40 142.5t-118 54.5t-119 -53t-41 -144v-103q0 -92 41.5 -144.5t119.5 -52.5zM302 -9q-56 0 -102 20t-78.5 55.5t-50 84.5t-17.5 107v103q0 58 17.5 107.5t49.5 84.5t77.5 55t102.5 20t102.5 -20t77 -55.5t48.5 -84t17 -105.5
v-103q0 -59 -17 -108.5t-48.5 -85t-76.5 -55.5t-102 -20z" />
    <glyph glyph-name="one.oldtab" 
d="M319 534l-204 -148v80l210 153h79v-619h-85v534z" />
    <glyph glyph-name="two.oldtab" 
d="M53 20l251 234q25 24 47 46t38 44.5t25 46.5t9 52q0 54 -33 85.5t-93 31.5t-97.5 -36t-48.5 -117h-77q4 49 21 89.5t45.5 69.5t68 45.5t88.5 16.5q48 0 87.5 -13.5t67 -38t43 -58.5t15.5 -75q0 -34 -13 -64t-35 -59t-52.5 -58t-64.5 -61l-141 -131h312v-70h-463v20z" />
    <glyph glyph-name="three.oldtab" 
d="M292 -105q-57 0 -102 17t-76.5 46.5t-48.5 69.5t-19 87h79q3 -33 14 -61t31 -48t51 -31.5t73 -11.5q84 0 122.5 39t38.5 104q0 71 -38.5 104t-114.5 33h-50v71h46q70 0 101.5 33t31.5 92q0 53 -30.5 86.5t-96.5 33.5q-67 0 -107.5 -37t-47.5 -100h-75q2 42 19 79.5
t47 65.5t71.5 44.5t92.5 16.5t90 -15.5t66 -41t40.5 -59.5t13.5 -71q0 -61 -30 -99.5t-79 -58.5q63 -17 100 -59.5t37 -117.5q0 -49 -18.5 -88t-51.5 -66.5t-79 -42t-101 -14.5z" />
    <glyph glyph-name="four.oldtab" 
d="M383 57h-347v28l312 533h118v-494h93v-67h-93v-154h-83v154zM383 124v428l-243 -428h243z" />
    <glyph glyph-name="five.oldtab" 
d="M296 -105q-56 0 -98 14.5t-70.5 40.5t-44.5 62t-20 78h79q5 -29 14.5 -52t27.5 -40t45 -26t66 -9q70 0 111 45.5t41 124.5q0 36 -10.5 66t-29.5 51.5t-45.5 33.5t-59.5 12q-61 0 -100 -17.5t-67 -49.5h-30v390h392v-73h-323v-229q21 20 57.5 33.5t86.5 13.5
q46 0 86 -16.5t68.5 -46.5t45 -72.5t16.5 -95.5q0 -55 -19 -99t-51 -75t-75.5 -47.5t-92.5 -16.5z" />
    <glyph glyph-name="six.oldtab" 
d="M310 -9q-66 0 -112.5 23.5t-76 65.5t-43.5 98.5t-14 122.5v50q0 90 19 160t53.5 117t83 71.5t108.5 24.5q80 0 136.5 -42.5t70.5 -127.5h-81q-12 49 -43 75t-89 26q-78 0 -124 -72.5t-49 -221.5q25 42 68.5 68t104.5 26q52 0 94 -18t71 -49t44.5 -73t15.5 -90
q0 -53 -17 -96t-47.5 -73.5t-74.5 -47.5t-98 -17zM310 58q32 0 59.5 11.5t47.5 33t31.5 51.5t11.5 67q0 76 -42 121.5t-109 45.5q-33 0 -61.5 -11.5t-49 -32t-32.5 -49t-12 -62.5q0 -43 12 -75.5t33 -54.5t49.5 -33.5t61.5 -11.5z" />
    <glyph glyph-name="seven.oldtab" 
d="M426 550h-358v68h468v-12l-301 -703h-87z" />
    <glyph glyph-name="eight.oldtab" 
d="M301 -9q-42 0 -84.5 13t-76.5 39.5t-55 65.5t-21 91q0 72 39 117t96 65q-51 19 -79.5 58t-28.5 96q0 45 18 80t47 59t67 36.5t78 12.5t78 -13t67 -37t46.5 -58.5t17.5 -77.5q0 -58 -29.5 -96.5t-80.5 -58.5q63 -22 100 -67t37 -114q0 -52 -20.5 -91.5t-53.5 -66
t-75.5 -40t-86.5 -13.5zM301 61q32 0 59 9.5t47 28t31.5 45t11.5 61.5q0 34 -11.5 60t-31.5 44t-46.5 27t-57.5 9t-58.5 -9.5t-48.5 -27.5t-33 -44.5t-12 -60.5t12 -60.5t33 -44.5t48 -27.5t57 -9.5zM304 413q54 0 87 32.5t33 91.5q0 54 -35 87t-88 33t-88.5 -32.5
t-35.5 -89.5q0 -29 10 -51.5t27.5 -38.5t40.5 -24t49 -8z" />
    <glyph glyph-name="nine.oldtab" 
d="M279 -105q-96 0 -150.5 49t-67.5 131h81q6 -24 16.5 -44t27 -35t41 -23.5t59.5 -8.5q85 0 124 72.5t42 221.5q-25 -42 -68 -68t-103 -26q-51 0 -92.5 18t-71 49t-46 73t-16.5 90q0 52 17.5 95.5t49 74t75 47.5t96.5 17q66 0 112.5 -23t75.5 -64t42.5 -97t13.5 -122v-57
q0 -179 -62.5 -274.5t-195.5 -95.5zM294 231q33 0 61 11.5t48.5 32t32 49t11.5 62.5q0 43 -11.5 75.5t-32.5 54.5t-49 33.5t-61 11.5q-32 0 -60 -11.5t-48 -33t-31.5 -51.5t-11.5 -67q0 -38 11 -69t31.5 -52.5t48.5 -33.5t61 -12z" />
    <glyph glyph-name="one.sup" horiz-adv-x="232" 
d="M105 707l-81 -54v59l89 61h60v-342h-68v276z" />
    <glyph glyph-name="two.sup" horiz-adv-x="287" 
d="M8 442l128 136q25 26 39.5 49.5t14.5 47.5q0 23 -13 36.5t-37 13.5q-25 0 -40 -15.5t-20 -50.5h-61q3 57 35.5 87.5t87.5 30.5q54 0 84 -27.5t30 -73.5q0 -34 -18 -63.5t-48 -58.5l-73 -72h142v-51h-251v11z" />
    <glyph glyph-name="three.sup" horiz-adv-x="312" 
d="M146 426q-63 0 -96 30t-35 81h61q3 -26 18.5 -43.5t49.5 -17.5q32 0 47.5 14.5t15.5 39.5q0 54 -60 54h-26v47h25q56 0 56 49q0 20 -13 33.5t-39 13.5t-42.5 -14.5t-19.5 -40.5h-61q3 46 35.5 75.5t88.5 29.5q55 0 85 -26.5t30 -65.5q0 -29 -15.5 -47t-41.5 -27
q30 -7 48.5 -27.5t18.5 -54.5q0 -48 -35 -75.5t-95 -27.5z" />
    <glyph glyph-name="a.alt" horiz-adv-x="615" 
d="M276 -9q-47 0 -89 17.5t-73.5 51t-50 82t-18.5 109.5v8q0 60 19 110t51 86.5t75.5 56.5t93.5 20q61 0 101 -26.5t63 -64.5v82h83v-523h-83v88q-11 -19 -29.5 -36.5t-41.5 -31t-49 -21.5t-52 -8zM285 60q33 0 63.5 12t53 36.5t36 62t13.5 87.5v8q0 101 -44 149t-115 48
q-72 0 -116.5 -52t-44.5 -148v-8q0 -50 12.5 -86.5t33.5 -60.5t49 -36t59 -12z" />
    <glyph glyph-name="t.alt" horiz-adv-x="338" 
d="M109 453h-82v70h82v119h83v-119h115v-70h-115v-453h-83v453z" />
    <glyph glyph-name="aacute.alt" horiz-adv-x="615" 
d="M270 -9q-47 0 -89 17.5t-73.5 51t-50 82t-18.5 109.5v8q0 60 19 110t51 86.5t75.5 56.5t93.5 20q61 0 101 -26.5t63 -64.5v82h83v-523h-83v88q-11 -19 -29.5 -36.5t-41.5 -31t-49 -21.5t-52 -8zM279 60q33 0 63.5 12t53 36.5t36 62t13.5 87.5v8q0 101 -44 149t-115 48
q-72 0 -116.5 -52t-44.5 -148v-8q0 -50 12.5 -86.5t33.5 -60.5t49 -36t59 -12zM317 760h104l-104 -147h-62z" />
    <glyph glyph-name="abreve.alt" horiz-adv-x="615" 
d="M276 -9q-47 0 -89 17.5t-73.5 51t-50 82t-18.5 109.5v8q0 60 19 110t51 86.5t75.5 56.5t93.5 20q61 0 101 -26.5t63 -64.5v82h83v-523h-83v88q-11 -19 -29.5 -36.5t-41.5 -31t-49 -21.5t-52 -8zM285 60q33 0 63.5 12t53 36.5t36 62t13.5 87.5v8q0 101 -44 149t-115 48
q-72 0 -116.5 -52t-44.5 -148v-8q0 -50 12.5 -86.5t33.5 -60.5t49 -36t59 -12zM298 619q-27 0 -50.5 10t-41 27.5t-28.5 41.5t-12 53h66q5 -29 20.5 -46.5t45.5 -17.5q32 0 49 17t23 47h64q-2 -29 -13 -53t-29.5 -41.5t-42.5 -27.5t-51 -10z" />
    <glyph glyph-name="acircumflex.alt" horiz-adv-x="615" 
d="M270 -9q-47 0 -89 17.5t-73.5 51t-50 82t-18.5 109.5v8q0 60 19 110t51 86.5t75.5 56.5t93.5 20q61 0 101 -26.5t63 -64.5v82h83v-523h-83v88q-11 -19 -29.5 -36.5t-41.5 -31t-49 -21.5t-52 -8zM279 60q33 0 63.5 12t53 36.5t36 62t13.5 87.5v8q0 101 -44 149t-115 48
q-72 0 -116.5 -52t-44.5 -148v-8q0 -50 12.5 -86.5t33.5 -60.5t49 -36t59 -12zM257 757h75l107 -144h-61l-85 75l-85 -75h-59z" />
    <glyph glyph-name="adieresis.alt" horiz-adv-x="615" 
d="M270 -9q-47 0 -89 17.5t-73.5 51t-50 82t-18.5 109.5v8q0 60 19 110t51 86.5t75.5 56.5t93.5 20q61 0 101 -26.5t63 -64.5v82h83v-523h-83v88q-11 -19 -29.5 -36.5t-41.5 -31t-49 -21.5t-52 -8zM279 60q33 0 63.5 12t53 36.5t36 62t13.5 87.5v8q0 101 -44 149t-115 48
q-72 0 -116.5 -52t-44.5 -148v-8q0 -50 12.5 -86.5t33.5 -60.5t49 -36t59 -12zM202 634q-22 0 -37.5 15.5t-15.5 37.5t15.5 37.5t37.5 15.5t37.5 -15.5t15.5 -37.5t-15.5 -37.5t-37.5 -15.5zM390 634q-22 0 -37.5 15.5t-15.5 37.5t15.5 37.5t37.5 15.5t37.5 -15.5
t15.5 -37.5t-15.5 -37.5t-37.5 -15.5z" />
    <glyph glyph-name="agrave.alt" horiz-adv-x="615" 
d="M276 -9q-47 0 -89 17.5t-73.5 51t-50 82t-18.5 109.5v8q0 60 19 110t51 86.5t75.5 56.5t93.5 20q61 0 101 -26.5t63 -64.5v82h83v-523h-83v88q-11 -19 -29.5 -36.5t-41.5 -31t-49 -21.5t-52 -8zM285 60q33 0 63.5 12t53 36.5t36 62t13.5 87.5v8q0 101 -44 149t-115 48
q-72 0 -116.5 -52t-44.5 -148v-8q0 -50 12.5 -86.5t33.5 -60.5t49 -36t59 -12zM172 760h104l62 -147h-62z" />
    <glyph glyph-name="amacron.alt" horiz-adv-x="615" 
d="M276 -9q-47 0 -89 17.5t-73.5 51t-50 82t-18.5 109.5v8q0 60 19 110t51 86.5t75.5 56.5t93.5 20q61 0 101 -26.5t63 -64.5v82h83v-523h-83v88q-11 -19 -29.5 -36.5t-41.5 -31t-49 -21.5t-52 -8zM285 60q33 0 63.5 12t53 36.5t36 62t13.5 87.5v8q0 101 -44 149t-115 48
q-72 0 -116.5 -52t-44.5 -148v-8q0 -50 12.5 -86.5t33.5 -60.5t49 -36t59 -12zM169 712h262v-64h-262v64z" />
    <glyph glyph-name="aogonek.alt" horiz-adv-x="615" 
d="M479 -182q-47 0 -75.5 21t-28.5 59q0 32 21 57.5t52 42.5v90q-11 -19 -29.5 -36.5t-41.5 -31t-49 -21.5t-52 -8q-47 0 -89 17.5t-73.5 51t-50 82t-18.5 109.5v8q0 60 19 110t51 86.5t75.5 56.5t93.5 20q61 0 101 -26.5t63 -64.5v82h83v-518q-41 -25 -59 -46.5t-18 -44.5
q0 -36 38 -36q13 0 27 2.5t25 8.5v-59q-13 -5 -28.5 -8.5t-36.5 -3.5zM285 60q33 0 63.5 12t53 36.5t36 62t13.5 87.5v8q0 101 -44 149t-115 48q-72 0 -116.5 -52t-44.5 -148v-8q0 -50 12.5 -86.5t33.5 -60.5t49 -36t59 -12z" />
    <glyph glyph-name="aring.alt" horiz-adv-x="615" 
d="M276 -9q-47 0 -89 17.5t-73.5 51t-50 82t-18.5 109.5v8q0 60 19 110t51 86.5t75.5 56.5t93.5 20q61 0 101 -26.5t63 -64.5v82h83v-523h-83v88q-11 -19 -29.5 -36.5t-41.5 -31t-49 -21.5t-52 -8zM285 60q33 0 63.5 12t53 36.5t36 62t13.5 87.5v8q0 101 -44 149t-115 48
q-72 0 -116.5 -52t-44.5 -148v-8q0 -50 12.5 -86.5t33.5 -60.5t49 -36t59 -12zM294 644q23 0 38 16.5t15 41.5t-15 41.5t-38 16.5t-38 -16.5t-15 -41.5t15 -41.5t38 -16.5zM294 598q-22 0 -41.5 8t-34 22.5t-23 33.5t-8.5 40t8.5 40t23 33.5t34 22.5t41.5 8t41.5 -8
t34 -22.5t23 -33.5t8.5 -40t-8.5 -40t-23 -33.5t-34 -22.5t-41.5 -8z" />
    <glyph glyph-name="aringacute.alt" horiz-adv-x="615" 
d="M270 -9q-47 0 -89 17.5t-73.5 51t-50 82t-18.5 109.5v8q0 60 19 110t51 86.5t75.5 56.5t93.5 20q61 0 101 -26.5t63 -64.5v82h83v-523h-83v88q-11 -19 -29.5 -36.5t-41.5 -31t-49 -21.5t-52 -8zM279 60q33 0 63.5 12t53 36.5t36 62t13.5 87.5v8q0 101 -44 149t-115 48
q-72 0 -116.5 -52t-44.5 -148v-8q0 -50 12.5 -86.5t33.5 -60.5t49 -36t59 -12zM288 624q23 0 38 16.5t15 41.5t-15 41.5t-38 16.5t-38 -16.5t-15 -41.5t15 -41.5t38 -16.5zM288 578q-22 0 -41.5 8t-34 22.5t-23 33.5t-8.5 40t8.5 40t23 33.5t34 22.5t41.5 8t41.5 -8
t34 -22.5t23 -33.5t8.5 -40t-8.5 -40t-23 -33.5t-34 -22.5t-41.5 -8zM318 956h104l-98 -127h-62z" />
    <glyph glyph-name="atilde.alt" horiz-adv-x="615" 
d="M270 -9q-47 0 -89 17.5t-73.5 51t-50 82t-18.5 109.5v8q0 60 19 110t51 86.5t75.5 56.5t93.5 20q61 0 101 -26.5t63 -64.5v82h83v-523h-83v88q-11 -19 -29.5 -36.5t-41.5 -31t-49 -21.5t-52 -8zM279 60q33 0 63.5 12t53 36.5t36 62t13.5 87.5v8q0 101 -44 149t-115 48
q-72 0 -116.5 -52t-44.5 -148v-8q0 -50 12.5 -86.5t33.5 -60.5t49 -36t59 -12zM346 619q-16 0 -31 6.5t-28.5 15t-25.5 15t-23 6.5q-14 0 -25 -12.5t-15 -32.5h-60q6 54 34 85t67 31q16 0 30.5 -6.5t28 -15t25.5 -15t23 -6.5q14 0 25 12.5t15 32.5h60q-6 -54 -34 -85
t-66 -31z" />
    <glyph glyph-name="germandbls.alt" horiz-adv-x="615" 
d="M407 -9q-36 0 -66.5 10.5t-53 30t-35.5 47t-14 62.5h80q2 -35 24 -58t65 -23q39 0 62.5 21t23.5 68q0 19 -8 34t-21.5 27.5t-31.5 24t-37 22.5q-22 13 -43.5 26.5t-38.5 30t-27.5 37.5t-10.5 48q0 37 23 64.5t50.5 52t50.5 49.5t23 56q0 42 -29.5 64.5t-82.5 22.5
q-67 0 -105 -40t-38 -118v-550h-83v546q0 52 17 94.5t47.5 72.5t72 46.5t89.5 16.5q40 0 75 -10.5t60.5 -30t40.5 -47.5t15 -64q0 -44 -23 -74t-50.5 -54t-50.5 -45.5t-23 -48.5q0 -11 6 -19.5t19 -18t33 -21.5t48 -29q22 -14 43 -30t38 -36t27.5 -44t10.5 -53
q0 -78 -48 -119t-124 -41z" />
    <glyph glyph-name="tbar.alt" horiz-adv-x="338" 
d="M27 339h82v114h-82v70h82v119h83v-119h115v-70h-115v-114h115v-60h-115v-279h-83v279h-82v60z" />
    <glyph glyph-name="tcaron.alt" horiz-adv-x="332" 
d="M103 453h-82v70h82v119h83v-119h115v-70h-115v-453h-83v453zM261 773h94l-48 -175h-58z" />
    <glyph glyph-name="tcommaaccent.alt" horiz-adv-x="338" 
d="M65 -194l58 157l80 -24l-87 -159zM103 453h-82v70h82v119h83v-119h115v-70h-115v-453h-83v453z" />
    <glyph glyph-name="space_uni0326.alt" horiz-adv-x="412" 
d="M156 626l87 159l51 -26l-58 -157z" />
    <glyph glyph-name="registered.alt" horiz-adv-x="844" 
d="M287 558h135q66 0 106.5 -27.5t40.5 -88.5v-2q0 -47 -25 -72t-62 -34l110 -171h-79l-103 159h-48v-159h-75v395zM421 375q73 0 73 62v3q0 33 -19 46.5t-54 13.5h-59v-125h59zM421 33q64 0 122 24t102 67t70 103t26 132q0 71 -25.5 130.5t-69 102t-101 66.5t-122.5 24
q-66 0 -124 -24t-101.5 -67t-69 -102.5t-25.5 -131.5t26 -132t70 -102.5t101.5 -66t120.5 -23.5zM421 -9q-76 0 -143 28t-116.5 77.5t-78 116t-28.5 144.5q0 76 28.5 143t78 117t117 78.5t144.5 28.5q78 0 145 -28.5t116 -78t77 -116t28 -142.5q0 -78 -28.5 -145.5t-78 -117
t-117 -77.5t-144.5 -28z" />
    <glyph glyph-name="caron.alt" horiz-adv-x="400" 
d="M194 773h94l-48 -175h-58z" />
    <glyph glyph-name="questiondown.uc" horiz-adv-x="489" 
d="M310 463q0 -30 -9 -55t-23.5 -47t-33 -41t-37.5 -37q-29 -29 -51 -58t-22 -65q0 -45 25.5 -72.5t81.5 -27.5q57 0 92.5 35t40.5 95h78q-3 -44 -19 -80.5t-44 -63t-65.5 -41t-83.5 -14.5q-51 0 -87 14t-59 37.5t-33.5 53t-10.5 61.5q0 28 8.5 51t22.5 43t31.5 38t35.5 35
q17 16 33 32.5t28 34t19.5 37t7.5 42.5v43h74v-50zM275 720q26 0 45 -18.5t19 -45.5t-19 -45.5t-45 -18.5t-45 18.5t-19 45.5t19 45.5t45 18.5z" />
    <glyph glyph-name="exclamdown.uc" horiz-adv-x="288" 
d="M111 513h64l14 -513h-92zM144 592q-26 0 -45 18.5t-19 45.5t19 45.5t45 18.5t45 -18.5t19 -45.5t-19 -45.5t-45 -18.5z" />
    <glyph glyph-name="hyphen.uc" horiz-adv-x="364" 
d="M60 366h244v-78h-244v78z" />
    <glyph glyph-name="endash.uc" horiz-adv-x="526" 
d="M45 361h436v-70h-436v70z" />
    <glyph glyph-name="emdash.uc" horiz-adv-x="885" 
d="M45 361h795v-70h-795v70z" />
    <glyph glyph-name="guilsinglleft.uc" horiz-adv-x="322" 
d="M59 301l130 188h82l-125 -188l125 -188h-82z" />
    <glyph glyph-name="guilsinglright.uc" horiz-adv-x="322" 
d="M176 301l-125 188h82l130 -188l-130 -188h-82z" />
    <glyph glyph-name="guillemotleft.uc" horiz-adv-x="500" 
d="M59 301l130 188h82l-125 -188l125 -188h-82zM237 301l130 188h82l-125 -188l125 -188h-82z" />
    <glyph glyph-name="guillemotright.uc" horiz-adv-x="500" 
d="M176 301l-125 188h82l130 -188l-130 -188h-82zM354 301l-125 188h82l130 -188l-130 -188h-82z" />
    <glyph glyph-name="parenleft.uc" horiz-adv-x="322" 
d="M220 -98q-32 38 -61.5 86t-52 104.5t-36 119t-13.5 130.5q0 67 13.5 130.5t36 119.5t52 104.5t61.5 86.5h82q-32 -40 -60.5 -89t-50 -105.5t-34.5 -118.5t-13 -128t13 -128t34.5 -118t50 -105t60.5 -89h-82z" />
    <glyph glyph-name="parenright.uc" horiz-adv-x="322" 
d="M20 -98q31 40 60 89t50.5 105t34.5 118.5t13 128.5t-13 128t-34.5 118t-50.5 105t-60 89h82q32 -38 61.5 -86t52 -104.5t36 -119.5t13.5 -130q0 -68 -13.5 -131t-36 -119t-52 -104.5t-61.5 -86.5h-82z" />
    <glyph glyph-name="bracketleft.uc" horiz-adv-x="356" 
d="M88 778h224v-66h-141v-730h141v-66h-224v862z" />
    <glyph glyph-name="bracketright.uc" horiz-adv-x="356" 
d="M44 -18h141v730h-141v66h224v-862h-224v66z" />
    <glyph glyph-name="braceleft.uc" horiz-adv-x="381" 
d="M337 -87q-55 0 -95.5 10t-66 32.5t-35 59t-1.5 89.5l14 95q3 22 0.5 43t-15 37t-36.5 26t-62 10v62q38 0 62 10t36.5 26t15 37t-0.5 43l-14 95q-8 53 1.5 89.5t35 59t66 32.5t95.5 10v-63q-36 0 -61 -6t-39.5 -20.5t-19 -39.5t0.5 -64l14 -106q7 -56 -20.5 -88.5
t-77.5 -45.5q50 -13 77.5 -45.5t20.5 -88.5l-14 -106q-5 -39 -0.5 -64t19 -39.5t39.5 -20.5t61 -6v-63z" />
    <glyph glyph-name="braceright.uc" horiz-adv-x="381" 
d="M44 -24q36 0 61 6t39.5 20.5t19 39.5t-0.5 64l-14 106q-8 56 20 88.5t78 45.5q-50 13 -78 45.5t-20 88.5l14 106q5 39 0.5 64t-19 39.5t-39.5 20.5t-61 6v63q55 0 95.5 -10t66 -32.5t35 -59t1.5 -89.5l-14 -95q-3 -22 -0.5 -43t15 -37t36.5 -26t62 -10v-62q-38 0 -62 -10
t-36.5 -26t-15 -37t0.5 -43l14 -95q8 -53 -1.5 -89.5t-35 -59t-66 -32.5t-95.5 -10v63z" />
    <glyph glyph-name="slash.uc" horiz-adv-x="403" 
d="M297 778h76l-273 -862h-76z" />
    <glyph glyph-name="backslash.uc" horiz-adv-x="403" 
d="M30 778h76l272 -862h-76z" />
    <glyph glyph-name="bar.uc" horiz-adv-x="253" 
d="M93 778h67v-862h-67v862z" />
    <glyph glyph-name="at.uc" horiz-adv-x="915" 
d="M459 -58q-97 0 -172 32.5t-126 87t-77.5 126t-26.5 148.5q0 89 33 165t89.5 131.5t131.5 87t159 31.5q87 0 158.5 -27.5t122.5 -75t79 -112.5t28 -140q0 -69 -17.5 -116t-44.5 -76t-59.5 -42t-61.5 -13t-49 6t-33 17t-19.5 26.5t-9.5 34.5q-21 -38 -60.5 -64.5
t-84.5 -26.5q-71 0 -113.5 45t-42.5 124q0 49 15 90t41 71t60.5 47t74.5 17q52 0 79.5 -20.5t37.5 -45.5l7 58h83l-29 -244q-11 -77 44 -77q21 0 40.5 10.5t35 33.5t24.5 58t9 85q0 65 -21 118.5t-61.5 91.5t-99 59t-133.5 21q-74 0 -135.5 -25t-105.5 -70.5t-69 -109.5
t-25 -141q0 -66 20 -125.5t60.5 -105t101.5 -72t142 -26.5q40 0 72 4.5t59 14t50 23.5t46 33h77q-19 -32 -49 -58t-69 -44.5t-86.5 -29t-99.5 -10.5zM437 204q22 0 44.5 10.5t40 30.5t28.5 49.5t11 68.5q0 55 -26.5 82t-74.5 27q-46 0 -79.5 -41.5t-33.5 -118.5
q0 -51 25 -79.5t65 -28.5z" />
    <glyph glyph-name="grave.uc" horiz-adv-x="400" 
d="M79 898h104l56 -127h-62z" />
    <glyph glyph-name="dieresis.uc" horiz-adv-x="400" 
d="M98 789q-22 0 -37.5 15.5t-15.5 37.5t15.5 37.5t37.5 15.5t37.5 -15.5t15.5 -37.5t-15.5 -37.5t-37.5 -15.5zM301 789q-22 0 -37.5 15.5t-15.5 37.5t15.5 37.5t37.5 15.5t37.5 -15.5t15.5 -37.5t-15.5 -37.5t-37.5 -15.5z" />
    <glyph glyph-name="macron.uc" horiz-adv-x="400" 
d="M67 850h266v-64h-266v64z" />
    <glyph glyph-name="acute.uc" horiz-adv-x="400" 
d="M217 898h104l-98 -127h-62z" />
    <glyph glyph-name="circumflex.uc" horiz-adv-x="400" 
d="M163 898h75l107 -127h-61l-85 58l-85 -58h-59z" />
    <glyph glyph-name="caron.uc" horiz-adv-x="400" 
d="M55 898h61l85 -58l85 58h59l-108 -127h-75z" />
    <glyph glyph-name="breve.uc" horiz-adv-x="400" 
d="M198 767q-27 0 -50.5 10t-41 27.5t-28.5 41.5t-12 53h66q5 -29 20.5 -46.5t45.5 -17.5q32 0 49 17t23 47h64q-2 -29 -13 -53t-29.5 -41.5t-42.5 -27.5t-51 -10z" />
    <glyph glyph-name="dotaccent.uc" horiz-adv-x="400" 
d="M200 787q-23 0 -39 16t-16 39t16 39t39 16t39 -16t16 -39t-16 -39t-39 -16z" />
    <glyph glyph-name="ring.uc" horiz-adv-x="400" 
d="M200 805q23 0 38 16.5t15 41.5t-15 41.5t-38 16.5t-38 -16.5t-15 -41.5t15 -41.5t38 -16.5zM200 759q-22 0 -41.5 8t-34 22.5t-23 33.5t-8.5 40t8.5 40t23 33.5t34 22.5t41.5 8t41.5 -8t34 -22.5t23 -33.5t8.5 -40t-8.5 -40t-23 -33.5t-34 -22.5t-41.5 -8z" />
    <glyph glyph-name="tilde.uc" horiz-adv-x="400" 
d="M254 774q-16 0 -31 6.5t-28.5 15t-25.5 15t-23 6.5q-14 0 -25 -12.5t-15 -32.5h-60q6 54 34 85t67 31q16 0 30.5 -6.5t28 -15t25.5 -15t23 -6.5q14 0 25 12.5t15 32.5h60q-6 -54 -34 -85t-66 -31z" />
    <glyph glyph-name="hungarumlaut.uc" horiz-adv-x="400" 
d="M133 898h95l-72 -127h-60zM287 898h95l-72 -127h-60z" />
    <glyph glyph-name="f.short" horiz-adv-x="331" 
d="M102 453h-75v70h75v85q0 80 38 124t116 44q20 0 32.5 -1.5t24.5 -6.5v-70q-11 5 -24 7t-30 2q-40 0 -57 -25t-17 -65v-94h128v-70h-128v-453h-83v453z" />
    <glyph glyph-name="f_f.short" horiz-adv-x="619" 
d="M102 453h-75v70h75v78q0 80 39 124t117 44q20 0 33 -2.5t29 -7.5v-70q-11 5 -26.5 8t-32.5 3q-41 0 -58.5 -25t-17.5 -65v-87h205v85q0 80 38 124t116 44q20 0 32.5 -1.5t24.5 -6.5v-70q-11 5 -24 7t-30 2q-40 0 -57 -25t-17 -65v-94h128v-70h-128v-453h-83v453h-205
v-453h-83v453z" />
    <glyph glyph-name="uni021B.alt" horiz-adv-x="338" 
d="M71 -194l58 157l80 -24l-87 -159zM109 453h-82v70h82v119h83v-119h115v-70h-115v-453h-83v453z" />
    <glyph glyph-name="semicolon.alt1" horiz-adv-x="292" 
d="M146 292q-26 0 -45 18.5t-19 45.5t19 45.5t45 18.5t45 -18.5t19 -45.5t-19 -45.5t-45 -18.5zM84 -51q62 9 62 54q-29 0 -46.5 15.5t-17.5 44.5q0 26 18.5 43t43.5 17q29 0 47.5 -19t18.5 -54v-19q0 -33 -10 -57t-27 -39.5t-40 -24t-49 -9.5v48z" />
    <glyph glyph-name="quotedblright.alt1" horiz-adv-x="406" 
d="M56 554q59 9 59 54q-28 0 -45.5 15t-17.5 43q0 24 17 40t43 16q28 0 46.5 -19.5t18.5 -52.5v-16q0 -63 -32.5 -93t-88.5 -33v46zM233 554q59 9 59 54q-28 0 -45.5 15t-17.5 43q0 24 17 40t43 16q28 0 46.5 -19.5t18.5 -52.5v-16q0 -63 -32.5 -93t-88.5 -33v46z" />
    <glyph glyph-name="quoteright.alt1" horiz-adv-x="229" 
d="M56 554q59 9 59 54q-28 0 -45.5 15t-17.5 43q0 24 17 40t43 16q28 0 46.5 -19.5t18.5 -52.5v-16q0 -63 -32.5 -93t-88.5 -33v46z" />
    <glyph glyph-name="quotedblleft.alt1" horiz-adv-x="406" 
d="M173 674q-59 -9 -59 -54q28 0 45.5 -15t17.5 -43q0 -24 -17 -40t-43 -16q-28 0 -46.5 19.5t-18.5 52.5v16q0 63 32.5 93t88.5 33v-46zM350 674q-59 -9 -59 -54q28 0 45.5 -15t17.5 -43q0 -24 -17 -40t-43 -16q-28 0 -46.5 19.5t-18.5 52.5v16q0 63 32.5 93t88.5 33v-46z
" />
    <glyph glyph-name="commaaccent.alt1alt" horiz-adv-x="400" 
d="M209 618q-23 0 -39 16.5t-16 45.5v13q0 54 27.5 79t74.5 28v-39q-49 -9 -49 -46q23 0 38 -13t15 -37q0 -20 -14.5 -33.5t-36.5 -13.5z" />
    <glyph glyph-name="quoteleft.alt1" horiz-adv-x="229" 
d="M173 674q-59 -9 -59 -54q28 0 45.5 -15t17.5 -43q0 -24 -17 -40t-43 -16q-28 0 -46.5 19.5t-18.5 52.5v16q0 63 32.5 93t88.5 33v-46z" />
    <glyph glyph-name="quotedblbase.alt1" horiz-adv-x="406" 
d="M233 -29q59 9 59 54q-28 0 -45.5 15t-17.5 43q0 24 17 40t43 16q28 0 46.5 -19.5t18.5 -52.5v-16q0 -63 -32.5 -93t-88.5 -33v46zM56 -29q59 9 59 54q-28 0 -45.5 15t-17.5 43q0 24 17 40t43 16q28 0 46.5 -19.5t18.5 -52.5v-16q0 -63 -32.5 -93t-88.5 -33v46z" />
    <glyph glyph-name="commaaccent.alt1" horiz-adv-x="400" 
d="M161 -185q49 9 49 46q-23 0 -38 13t-15 37q0 20 14.5 33.5t36.5 13.5q23 0 39 -16.5t16 -45.5v-13q0 -54 -27.5 -79t-74.5 -28v39z" />
    <glyph glyph-name="comma.alt1" horiz-adv-x="282" 
d="M79 -51q62 9 62 54q-29 0 -46.5 15.5t-17.5 44.5q0 26 18.5 43t43.5 17q29 0 47.5 -19t18.5 -54v-19q0 -33 -10 -57t-27 -39.5t-40 -24t-49 -9.5v48z" />
    <glyph glyph-name="tcommaaccent.altalt1" horiz-adv-x="338" 
d="M98 -185q49 9 49 46q-23 0 -38 13t-15 37q0 20 14.5 33.5t36.5 13.5q23 0 39 -16.5t16 -45.5v-13q0 -54 -27.5 -79t-74.5 -28v39zM103 453h-82v70h82v119h83v-119h115v-70h-115v-453h-83v453z" />
    <glyph glyph-name="Scommaaccent.alt1" horiz-adv-x="627" 
d="M315 -9q-72 0 -121.5 18.5t-81.5 49.5t-48.5 72t-21.5 87h84q4 -32 14 -60.5t31 -50t55.5 -34t88.5 -12.5q34 0 64 9.5t52 27.5t34.5 43t12.5 55t-8 52.5t-27.5 38.5t-53 27t-84.5 19q-56 9 -100.5 23t-75.5 36.5t-47 56t-16 81.5q0 41 17 76.5t47.5 61.5t72.5 41t93 15
q108 0 171.5 -50.5t74.5 -146.5h-78q-13 68 -53 97.5t-115 29.5q-74 0 -111.5 -32.5t-37.5 -83.5q0 -26 6.5 -46.5t25 -35.5t52 -26.5t88.5 -19.5q60 -9 105 -24t76 -39t46.5 -59t15.5 -86q0 -45 -18.5 -83.5t-51.5 -67t-78.5 -44.5t-98.5 -16zM256 -185q49 9 49 46
q-23 0 -38 13t-15 37q0 20 14.5 33.5t36.5 13.5q23 0 39 -16.5t16 -45.5v-13q0 -54 -27.5 -79t-74.5 -28v39z" />
    <glyph glyph-name="kcommaaccent.alt1" horiz-adv-x="516" 
d="M78 773h83v-491l217 241h97l-224 -243l243 -280h-101l-232 271v-271h-83v773zM223 -185q49 9 49 46q-23 0 -38 13t-15 37q0 20 14.5 33.5t36.5 13.5q23 0 39 -16.5t16 -45.5v-13q0 -54 -27.5 -79t-74.5 -28v39z" />
    <glyph glyph-name="tcommaaccent.alt1" horiz-adv-x="355" 
d="M237 -7q-72 0 -106.5 38t-34.5 100v322h-75v70h75v119h83v-119h122v-70h-122v-314q0 -76 65 -76q20 0 35 3t29 8v-70q-13 -5 -29 -8t-42 -3zM146 -185q49 9 49 46q-23 0 -38 13t-15 37q0 20 14.5 33.5t36.5 13.5q23 0 39 -16.5t16 -45.5v-13q0 -54 -27.5 -79t-74.5 -28
v39z" />
    <glyph glyph-name="lcommaaccent.alt1" horiz-adv-x="256" 
d="M86 773h84v-773h-84v773zM78 -185q49 9 49 46q-23 0 -38 13t-15 37q0 20 14.5 33.5t36.5 13.5q23 0 39 -16.5t16 -45.5v-13q0 -54 -27.5 -79t-74.5 -28v39z" />
    <glyph glyph-name="Rcommaaccent.alt1" horiz-adv-x="628" 
d="M84 715h215q51 0 96.5 -11t79.5 -35t54 -61.5t20 -91.5v-4q0 -44 -14 -77.5t-38 -57t-56 -38.5t-69 -22l219 -317h-97l-213 311h-110v-311h-87v715zM305 380q77 0 117 33t40 99v4q0 36 -11 61t-31 40t-49.5 21.5t-65.5 6.5h-134v-265h134zM263 -185q49 9 49 46
q-23 0 -38 13t-15 37q0 20 14.5 33.5t36.5 13.5q23 0 39 -16.5t16 -45.5v-13q0 -54 -27.5 -79t-74.5 -28v39z" />
    <glyph glyph-name="quotesinglbase.alt1" horiz-adv-x="229" 
d="M56 -29q59 9 59 54q-28 0 -45.5 15t-17.5 43q0 24 17 40t43 16q28 0 46.5 -19.5t18.5 -52.5v-16q0 -63 -32.5 -93t-88.5 -33v46z" />
    <glyph glyph-name="Lcommaaccent.alt1" horiz-adv-x="535" 
d="M90 715h87v-644h327v-71h-414v715zM257 -185q49 9 49 46q-23 0 -38 13t-15 37q0 20 14.5 33.5t36.5 13.5q23 0 39 -16.5t16 -45.5v-13q0 -54 -27.5 -79t-74.5 -28v39z" />
    <glyph glyph-name="Tcommaaccent.alt1" horiz-adv-x="561" 
d="M231 644h-208v71h503v-71h-208v-644h-87v644zM223 -185q49 9 49 46q-23 0 -38 13t-15 37q0 20 14.5 33.5t36.5 13.5q23 0 39 -16.5t16 -45.5v-13q0 -54 -27.5 -79t-74.5 -28v39z" />
    <glyph glyph-name="Gcommaaccent.alt1" horiz-adv-x="767" 
d="M401 -9q-83 0 -147 27t-108.5 75.5t-67.5 115t-23 144.5v8q0 78 25 145t71 116t109.5 76.5t140.5 27.5q53 0 102 -13t88.5 -40.5t66 -70.5t34.5 -103h-87q-15 85 -69.5 121.5t-132.5 36.5q-62 0 -110 -21.5t-81 -60.5t-50 -93t-17 -120v-8q0 -66 16.5 -120.5t48.5 -92.5
t80 -59t111 -21q58 0 100 18t69.5 48.5t41 72t14.5 89.5h-209v72h294v-53q0 -78 -22.5 -137t-63.5 -99t-98 -60.5t-126 -20.5zM347 -185q49 9 49 46q-23 0 -38 13t-15 37q0 20 14.5 33.5t36.5 13.5q23 0 39 -16.5t16 -45.5v-13q0 -54 -27.5 -79t-74.5 -28v39z" />
    <glyph glyph-name="gcommaaccent.alt1" horiz-adv-x="627" 
d="M293 -191q-58 0 -100.5 13t-71 34.5t-44.5 51t-21 62.5h85q18 -91 151 -91q77 0 122.5 38.5t45.5 122.5v76q-11 -19 -29.5 -37t-42 -31.5t-50.5 -22t-55 -8.5q-51 0 -95 18.5t-75.5 51.5t-49.5 78.5t-18 99.5v7q0 53 18 100.5t50 83t77 56t99 20.5q66 0 107 -27.5
t64 -65.5v84h83v-488q0 -57 -19 -99.5t-52 -70.5t-78.5 -42t-100.5 -14zM292 86q36 0 67.5 12.5t54.5 36t36 58t13 78.5v7q0 88 -44.5 136.5t-121.5 48.5q-39 0 -70 -14t-52 -38.5t-32.5 -59t-11.5 -75.5v-8q0 -43 13 -76.5t34.5 -57t51 -36t62.5 -12.5zM293 618
q-23 0 -39 16.5t-16 45.5v13q0 54 27.5 79t74.5 28v-39q-49 -9 -49 -46q23 0 38 -13t15 -37q0 -20 -14.5 -33.5t-36.5 -13.5z" />
    <glyph glyph-name="Kcommaaccent.alt1" horiz-adv-x="616" 
d="M90 715h87v-344l311 344h97l-318 -347l334 -368h-105l-319 349v-349h-87v715zM273 -185q49 9 49 46q-23 0 -38 13t-15 37q0 20 14.5 33.5t36.5 13.5q23 0 39 -16.5t16 -45.5v-13q0 -54 -27.5 -79t-74.5 -28v39z" />
    <glyph glyph-name="scommaaccent.alt1" horiz-adv-x="480" 
d="M246 -9q-94 0 -147.5 44.5t-57.5 125.5h81q5 -47 32.5 -74t90.5 -27q60 0 87 20.5t27 62.5q0 41 -30.5 59t-91.5 29q-51 9 -86 21.5t-56 30.5t-30.5 43t-9.5 59q0 36 16 63.5t41.5 46t57 28t62.5 9.5q35 0 67 -7.5t57.5 -25.5t42.5 -47t22 -71h-80q-9 43 -34.5 62.5
t-75.5 19.5q-45 0 -72 -20.5t-27 -54.5q0 -18 5.5 -30.5t19.5 -22t37.5 -17t59.5 -13.5q40 -8 74 -17.5t58.5 -26t38 -43t13.5 -68.5q0 -72 -48 -115.5t-144 -43.5zM197 -185q49 9 49 46q-23 0 -38 13t-15 37q0 20 14.5 33.5t36.5 13.5q23 0 39 -16.5t16 -45.5v-13
q0 -54 -27.5 -79t-74.5 -28v39z" />
    <glyph glyph-name="rcommaaccent.alt1" horiz-adv-x="376" 
d="M84 523h83v-94q12 22 27.5 40.5t35.5 32t47 21.5t62 9v-78q-39 -2 -71 -10t-54.5 -27t-34.5 -50.5t-12 -79.5v-287h-83v523zM79 -185q49 9 49 46q-23 0 -38 13t-15 37q0 20 14.5 33.5t36.5 13.5q23 0 39 -16.5t16 -45.5v-13q0 -54 -27.5 -79t-74.5 -28v39z" />
    <glyph glyph-name="ncommaaccent.alt1" horiz-adv-x="598" 
d="M84 523h83v-83q18 37 60.5 64.5t107.5 27.5q40 0 74 -11.5t58.5 -37t38 -65.5t13.5 -97v-321h-83v327q0 69 -30 101t-93 32q-29 0 -55.5 -9t-46.5 -27t-32 -45t-12 -62v-317h-83v523zM252 -185q49 9 49 46q-23 0 -38 13t-15 37q0 20 14.5 33.5t36.5 13.5q23 0 39 -16.5
t16 -45.5v-13q0 -54 -27.5 -79t-74.5 -28v39z" />
    <glyph glyph-name="Ncommaaccent.alt1" horiz-adv-x="724" 
d="M90 715h113l348 -591v591h83v-715h-100l-361 613v-613h-83v715zM303 -185q49 9 49 46q-23 0 -38 13t-15 37q0 20 14.5 33.5t36.5 13.5q23 0 39 -16.5t16 -45.5v-13q0 -54 -27.5 -79t-74.5 -28v39z" />
    </font>
</defs>
</svg>
