<?xml version="1.0" standalone="no"?>
<!DOCTYPE svg PUBLIC "-//W3C//DTD SVG 1.1//EN" "http://www.w3.org/Graphics/SVG/1.1/DTD/svg11.dtd" >
<svg xmlns="http://www.w3.org/2000/svg" xmlns:xlink="http://www.w3.org/1999/xlink" version="1.1">
<metadata>
Created by FontForge 20190801 at Tue Oct 23 21:02:54 2018
 By www-data
(C)2009 Commercial Type.
</metadata>
<defs>
<font id="GraphikSemiboldWeb" horiz-adv-x="600" >
  <font-face 
    font-family="GraphikSemiboldWeb"
    font-weight="600"
    font-stretch="normal"
    units-per-em="1000"
    panose-1="2 11 7 3 3 2 2 6 2 3"
    ascent="800"
    descent="-200"
    x-height="523"
    cap-height="715"
    bbox="-238 -228 1159 1128"
    underline-thickness="50"
    underline-position="-100"
    unicode-range="U+000D-FB02"
  />
<missing-glyph horiz-adv-x="512" 
 />
    <glyph glyph-name="f_f" unicode="ff" horiz-adv-x="686" 
d="M88 420h-69v103h69v54q0 91 49 137t137 46q23 0 40 -3t34 -8v-108q-11 3 -23.5 5.5t-28.5 2.5q-34 0 -49 -19t-15 -50v-57h171v60q0 92 49.5 137.5t137.5 45.5q23 0 40.5 -2.5t34.5 -7.5v-109q-11 4 -24 6.5t-29 2.5q-35 0 -50 -19.5t-15 -49.5v-64h114v-103h-114v-420
h-144v420h-171v-420h-144v420z" />
    <glyph glyph-name=".notdef" horiz-adv-x="512" 
 />
    <glyph glyph-name=".null" horiz-adv-x="0" 
 />
    <glyph glyph-name="nonmarkingreturn" unicode="&#xd;" horiz-adv-x="222" 
 />
    <glyph glyph-name="NULL" horiz-adv-x="0" 
 />
    <glyph glyph-name="NULL" horiz-adv-x="0" 
 />
    <glyph glyph-name="space" unicode=" " horiz-adv-x="222" 
 />
    <glyph glyph-name="exclam" unicode="!" horiz-adv-x="316" 
d="M158 -9q-19 0 -35.5 6.5t-28.5 18.5q-13 12 -20 27.5t-7 33.5q0 37 26.5 62t64.5 25t64.5 -25t26.5 -62q0 -18 -7 -33.5t-19 -27.5q-13 -12 -29.5 -18.5t-35.5 -6.5zM78 715h162l-22 -492h-118z" />
    <glyph glyph-name="quotedbl" unicode="&#x22;" horiz-adv-x="430" 
d="M48 715h140l-19 -264h-102zM242 715h140l-18 -264h-103z" />
    <glyph glyph-name="numbersign" unicode="#" horiz-adv-x="549" 
d="M287 256h-75l-23 -157h-102l23 157h-74v115h91l14 96h-80v111h96l21 137h101l-20 -137h75l21 137h101l-21 -137h78v-111h-94l-14 -96h83v-115h-100l-23 -157h-101zM229 371h75l14 96h-75z" />
    <glyph glyph-name="dollar" unicode="$" horiz-adv-x="640" 
d="M287 -10q-65 4 -112 23.5t-77 50.5q-31 30 -47 71t-19 88h148q3 -22 8.5 -41t17.5 -34q12 -16 31.5 -27t49.5 -15v193q-60 9 -104 25.5t-73 42.5q-29 25 -43.5 61t-14.5 86q0 43 16.5 80t47.5 65q31 27 74 44t97 21v89h71v-90q103 -9 162 -60.5t68 -148.5h-143
q-7 39 -27 62.5t-60 31.5v-179q56 -9 101 -23.5t77 -38.5q31 -25 47.5 -61.5t16.5 -88.5q0 -45 -15.5 -84.5t-45.5 -69.5q-31 -31 -76.5 -50t-104.5 -23v-125h-71v125zM452 200q0 36 -19.5 56t-74.5 32v-182q44 8 69 32.5t25 61.5zM196 527q0 -17 4 -30.5t14 -23.5
q10 -11 27.5 -18.5t45.5 -13.5v169q-45 -6 -68 -28.5t-23 -54.5z" />
    <glyph glyph-name="percent" unicode="%" horiz-adv-x="811" 
d="M209 461q32 0 50 22.5t18 64.5q0 40 -18 63t-50 23t-51 -22.5t-19 -63.5q0 -43 19 -65t51 -22zM208 371q-40 0 -73 13.5t-57 37.5q-24 23 -37 55t-13 70q0 37 14 69.5t39 55.5q24 23 57 36.5t71 13.5q37 0 70 -13t57 -36t38 -54.5t14 -69.5t-13.5 -70.5t-37.5 -56.5
t-57 -37.5t-72 -13.5zM599 715h90l-475 -715h-90zM603 80q33 0 51 22.5t18 63.5t-18 63.5t-51 22.5q-32 0 -50.5 -22t-18.5 -64t18.5 -64t50.5 -22zM603 -11q-40 0 -73 13.5t-57 37.5q-24 23 -37 55t-13 70t14 70t39 56q24 23 56.5 36.5t70.5 13.5t71 -13t57 -36t38 -54.5
t14 -69.5t-13.5 -71t-37.5 -57t-57 -37.5t-72 -13.5z" />
    <glyph glyph-name="ampersand" unicode="&#x26;" horiz-adv-x="734" 
d="M594 146l119 -146h-185l-52 64q-34 -31 -80 -52.5t-115 -21.5q-54 0 -99 14.5t-76 41.5q-32 27 -49.5 65.5t-17.5 87.5q0 74 43 124.5t116 85.5q-26 36 -38 70.5t-12 64.5q0 43 17 76.5t46 56.5q28 22 66.5 33.5t80.5 11.5q39 0 74 -10.5t62 -30.5q27 -21 42.5 -51
t15.5 -68q0 -61 -37 -105t-109 -74l112 -137l64 125h128zM302 109q29 0 54 12t45 36l-136 165q-32 -17 -53 -41t-21 -66q0 -48 28.5 -77t82.5 -29zM289 542q0 -23 12.5 -45.5t35.5 -49.5q45 21 65.5 45.5t20.5 61.5q0 28 -17.5 46t-45.5 18q-30 0 -50.5 -19t-20.5 -57z" />
    <glyph glyph-name="quotesingle" unicode="'" horiz-adv-x="240" 
d="M48 715h144l-19 -264h-106z" />
    <glyph glyph-name="parenleft" unicode="(" horiz-adv-x="343" 
d="M210 -148q-31 37 -61 83.5t-53 103.5q-24 57 -38.5 125.5t-14.5 148.5t14.5 148.5t38.5 125.5q23 57 53 103.5t61 83.5h119q-28 -39 -54 -87t-46 -105q-21 -57 -33 -124t-12 -145t12 -145t33 -124q20 -57 46 -104.5t54 -87.5h-119z" />
    <glyph glyph-name="parenright" unicode=")" horiz-adv-x="343" 
d="M15 -146q28 39 54 87t46 105t32 124t12 145t-12 145t-32 124t-46 104.5t-54 87.5h119q31 -37 60.5 -83.5t53.5 -103.5q23 -57 37.5 -125t14.5 -149q0 -80 -14.5 -148.5t-37.5 -125.5q-24 -57 -53.5 -103.5t-60.5 -83.5h-119z" />
    <glyph glyph-name="asterisk" unicode="*" horiz-adv-x="434" 
d="M66 448l87 97l-119 19l30 103l112 -51l-17 127h117l-18 -127l112 51l30 -103l-120 -19l87 -97l-89 -64l-62 117l-61 -117z" />
    <glyph glyph-name="plus" unicode="+" horiz-adv-x="551" 
d="M217 286h-180v109h180v195h118v-195h180v-109h-180v-195h-118v195z" />
    <glyph glyph-name="comma" unicode="," horiz-adv-x="298" 
d="M23 -86l88 247l136 -51l-136 -233z" />
    <glyph glyph-name="hyphen" unicode="-" horiz-adv-x="364" 
d="M54 339h256v-115h-256v115z" />
    <glyph glyph-name="period" unicode="." horiz-adv-x="293" 
d="M146 -9q-38 0 -63.5 25.5t-25.5 62.5q0 36 25.5 61.5t63.5 25.5t64 -25.5t26 -61.5q0 -18 -7 -34t-19 -28t-28.5 -19t-35.5 -7z" />
    <glyph glyph-name="slash" unicode="/" horiz-adv-x="423" 
d="M294 776h119l-308 -924h-118z" />
    <glyph glyph-name="zero" unicode="0" horiz-adv-x="713" 
d="M360 116q76 0 111.5 57t35.5 170v32q0 109 -37 167t-112 58t-113 -56.5t-38 -168.5v-34q0 -113 39 -169t114 -56zM356 -11q-71 0 -128.5 24t-97.5 70q-41 45 -63 110t-22 147v34q0 82 23 147.5t64 110.5t98.5 69t126.5 24t126 -23t99 -67q41 -45 63.5 -110t22.5 -148v-33
q0 -82 -21.5 -148t-61.5 -112q-41 -46 -99 -70.5t-130 -24.5z" />
    <glyph glyph-name="one" unicode="1" horiz-adv-x="431" 
d="M177 555l-145 -95v138l165 117h142v-715h-162v555z" />
    <glyph glyph-name="two" unicode="2" horiz-adv-x="593" 
d="M12 26l262 277q52 55 82.5 103.5t30.5 97.5q0 45 -24 71t-71 26q-48 0 -77 -30t-37 -101h-147q6 125 76.5 190t191.5 65q59 0 105.5 -16t78.5 -44q31 -29 47.5 -69t16.5 -88q0 -71 -38 -132t-100 -121l-135 -132h278v-123h-540v26z" />
    <glyph glyph-name="three" unicode="3" horiz-adv-x="635" 
d="M313 -11q-137 0 -206.5 64.5t-74.5 173.5h146q5 -52 34.5 -85.5t94.5 -33.5q61 0 90 27.5t29 75.5q0 52 -28.5 77.5t-86.5 25.5h-56v108h52q57 0 83 24.5t26 70.5q0 38 -24.5 63.5t-74.5 25.5q-51 0 -81.5 -28.5t-36.5 -79.5h-143q3 49 21.5 90.5t52.5 72.5q33 30 81 47
t109 17q59 0 105 -14.5t78 -40.5t49 -61.5t17 -77.5q0 -60 -32 -98t-86 -57q63 -14 101 -56.5t38 -111.5q0 -101 -73 -160t-204 -59z" />
    <glyph glyph-name="four" unicode="4" horiz-adv-x="656" 
d="M377 142h-351v59l309 514h199v-457h94v-116h-94v-142h-157v142zM380 258v335l-192 -335h192z" />
    <glyph glyph-name="five" unicode="5" horiz-adv-x="615" 
d="M297 -11q-66 0 -114.5 17t-80.5 47q-33 30 -50 71t-20 89h149q3 -23 10 -41t20 -31q13 -14 33.5 -21t51.5 -7q55 0 83.5 35t28.5 92q0 58 -31 91.5t-85 33.5q-51 0 -83 -16t-54 -41h-90l10 407h453v-123h-332l-3 -179q21 26 59.5 46t99.5 20q49 0 89 -16.5t69 -46.5
q29 -31 45 -76t16 -102t-19.5 -103t-55.5 -78q-36 -33 -86.5 -50.5t-112.5 -17.5z" />
    <glyph glyph-name="six" unicode="6" horiz-adv-x="654" 
d="M339 -11q-81 0 -137 26t-91 72q-35 45 -50.5 107.5t-15.5 135.5v18q0 91 23 161t64 118t97 73t122 25q107 0 171.5 -49.5t76.5 -148.5h-150q-8 35 -28.5 55.5t-67.5 20.5q-67 0 -106 -57t-42 -168q25 40 66.5 64.5t106.5 24.5q51 0 94 -16t75 -46q31 -30 49 -73t18 -97
q0 -55 -19 -100.5t-54 -77.5q-36 -32 -87 -50t-115 -18zM337 106q54 0 86 35t32 92t-31.5 92t-86.5 35q-27 0 -49.5 -9t-38.5 -25q-16 -17 -25 -39t-9 -49q0 -62 34 -97t88 -35z" />
    <glyph glyph-name="seven" unicode="7" horiz-adv-x="558" 
d="M342 584h-315v131h518v-18l-256 -697h-165z" />
    <glyph glyph-name="eight" unicode="8" horiz-adv-x="639" 
d="M320 -11q-59 0 -110.5 13.5t-88.5 40.5q-38 27 -59.5 66.5t-21.5 92.5q0 66 35 111.5t97 67.5q-49 20 -76.5 57.5t-27.5 91.5q0 46 20.5 82.5t55.5 61.5t81 38t96 13q51 0 97 -13t80 -38t54 -61t20 -82q0 -54 -28 -91t-76 -58q63 -22 97 -67t34 -109q0 -53 -21 -93
t-58 -68q-38 -28 -89 -42t-111 -14zM320 107q51 0 85 28.5t34 82.5q0 53 -33.5 81t-84.5 28q-25 0 -46.5 -7t-37.5 -21q-17 -14 -26.5 -34.5t-9.5 -47.5t9.5 -47.5t25.5 -34.5t37.5 -21t46.5 -7zM322 426q44 0 72 24.5t28 69.5q0 42 -29 67t-72 25t-72.5 -24.5t-29.5 -68.5
t30.5 -68.5t72.5 -24.5z" />
    <glyph glyph-name="nine" unicode="9" horiz-adv-x="655" 
d="M310 -10q-117 0 -184 53t-79 150h151q8 -37 32 -58.5t75 -21.5q70 0 106.5 55.5t38.5 165.5q-25 -39 -65.5 -63t-105.5 -24q-52 0 -95.5 15.5t-75.5 45.5t-50 73t-18 97q0 55 19 101t55 79q36 32 87.5 50t115.5 18q74 0 129 -24t91 -68q36 -45 54 -107.5t18 -139.5v-32
q0 -177 -77 -271t-222 -94zM315 355q55 0 88.5 33.5t33.5 86.5q0 63 -33.5 98.5t-88.5 35.5q-54 0 -86 -35t-32 -92t32 -92t86 -35z" />
    <glyph glyph-name="colon" unicode=":" horiz-adv-x="300" 
d="M149 -9q-38 0 -63 25.5t-25 62.5q0 36 25 61.5t63 25.5t64 -25.5t26 -61.5q0 -18 -7 -34t-19 -28t-28.5 -19t-35.5 -7zM149 281q-38 0 -63 25.5t-25 62.5q0 36 25 61.5t63 25.5t64 -25.5t26 -61.5q0 -18 -7 -34t-19 -28t-28.5 -19t-35.5 -7z" />
    <glyph glyph-name="semicolon" unicode=";" horiz-adv-x="311" 
d="M14 -86l88 247l136 -51l-136 -233zM168 281q-38 0 -63.5 25.5t-25.5 62.5q0 36 25.5 61.5t63.5 25.5t64 -25.5t26 -61.5q0 -18 -7 -34t-19 -28t-28.5 -19t-35.5 -7z" />
    <glyph glyph-name="less" unicode="&#x3c;" horiz-adv-x="509" 
d="M46 308v29l408 235v-132l-217 -117l217 -121v-130z" />
    <glyph glyph-name="equal" unicode="=" horiz-adv-x="530" 
d="M39 281h452v-103h-452v103zM39 472h452v-104h-452v104z" />
    <glyph glyph-name="greater" unicode="&#x3e;" horiz-adv-x="509" 
d="M56 205l216 117l-216 121v130l408 -236v-29l-408 -235v132z" />
    <glyph glyph-name="question" unicode="?" horiz-adv-x="532" 
d="M173 253q0 29 9 53.5t23 45.5q14 20 31.5 38.5t35.5 35.5q27 26 47.5 51.5t20.5 55.5q0 35 -18.5 54.5t-58.5 19.5q-42 0 -68 -27.5t-31 -75.5h-139q2 52 21 93t52 70q32 28 76.5 43t97.5 15q55 0 96.5 -13t69.5 -37t42 -57t14 -73q0 -52 -25 -89t-57 -68
q-18 -17 -36 -33.5t-32 -33.5q-15 -17 -25 -35t-12 -38v-25h-134v30zM239 -9q-19 0 -36 6.5t-29 18.5q-13 12 -20 27.5t-7 33.5t7 34t20 28q12 12 29 18.5t36 6.5q38 0 64.5 -25t26.5 -62q0 -18 -7 -33.5t-19 -27.5q-13 -12 -29.5 -18.5t-35.5 -6.5z" />
    <glyph glyph-name="at" unicode="@" horiz-adv-x="919" 
d="M460 -154q-101 0 -180 32.5t-133 88.5q-55 56 -83.5 130.5t-28.5 157.5q0 96 36 176t97 138q60 57 140 89t168 32q89 0 164 -27t129 -75q54 -49 84.5 -116t30.5 -147q0 -73 -18.5 -124t-47.5 -82q-30 -32 -67 -46.5t-73 -14.5q-64 0 -95 21.5t-40 61.5q-20 -40 -56 -63.5
t-84 -23.5q-74 0 -118 48t-44 133q0 52 15.5 95t42.5 74q26 31 62 48t77 17q50 0 76.5 -18.5t37.5 -44.5l7 55h124l-32 -265q-5 -35 6 -53t39 -18q21 0 40.5 11.5t35.5 35.5t25.5 62t9.5 91q0 66 -23 121t-65 94q-43 39 -104.5 60.5t-137.5 21.5q-77 0 -142.5 -26.5
t-113.5 -74.5q-49 -48 -76.5 -116t-27.5 -151q0 -70 21.5 -132t65.5 -108q43 -46 107.5 -73t150.5 -27t147 24t102 62h86q-23 -35 -57 -63t-77 -49q-44 -20 -95.5 -31t-107.5 -11zM440 152q19 0 37 9t32 27q13 17 21 41.5t8 55.5q0 43 -19.5 64.5t-59.5 21.5
q-38 0 -64.5 -35.5t-26.5 -95.5q0 -40 19 -64t53 -24z" />
    <glyph glyph-name="A" unicode="A" horiz-adv-x="720" 
d="M256 715h211l232 -715h-169l-49 159h-259l-49 -159h-152zM257 274h189l-94 309z" />
    <glyph glyph-name="B" unicode="B" horiz-adv-x="659" 
d="M77 715h281q118 0 177.5 -47t59.5 -139v-4q0 -57 -28 -96.5t-88 -56.5q70 -14 106.5 -55t36.5 -113v-4q0 -99 -63 -149.5t-188 -50.5h-294v715zM346 112q60 0 88 26t28 75v4q0 50 -29 75t-95 25h-103v-205h111zM332 421q59 0 84 22t25 70v4q0 45 -26.5 66t-83.5 21h-96
v-183h97z" />
    <glyph glyph-name="C" unicode="C" horiz-adv-x="748" 
d="M399 -11q-88 0 -155 26t-112 74q-46 47 -69 114t-23 150v8q0 81 27 148.5t75 115.5q47 48 112 74.5t141 26.5q64 0 119.5 -16t97.5 -48q41 -32 67.5 -81t32.5 -115h-166q-9 65 -45.5 98.5t-104.5 33.5q-85 0 -135 -62t-50 -174v-8q0 -112 48.5 -173t137.5 -61
q67 0 110.5 34t53.5 103h159q-7 -66 -33 -116.5t-68 -83.5q-42 -34 -98 -51t-122 -17z" />
    <glyph glyph-name="D" unicode="D" horiz-adv-x="726" 
d="M305 126q109 0 160.5 58.5t51.5 170.5v8q0 110 -50.5 168t-163.5 58h-64v-463h66zM77 715h234q94 0 164.5 -24.5t117.5 -69.5q46 -46 69.5 -111t23.5 -145v-8q0 -80 -23.5 -146t-70.5 -113t-117.5 -72.5t-164.5 -25.5h-233v715z" />
    <glyph glyph-name="E" unicode="E" horiz-adv-x="595" 
d="M77 715h466v-126h-305v-167h244v-118h-244v-178h321v-126h-482v715z" />
    <glyph glyph-name="F" unicode="F" horiz-adv-x="567" 
d="M77 715h459v-127h-297v-189h235v-122h-235v-277h-162v715z" />
    <glyph glyph-name="G" unicode="G" horiz-adv-x="780" 
d="M404 -11q-88 0 -155.5 27t-113.5 76q-47 48 -71 114.5t-24 146.5v8q0 81 27 148t76 115q48 48 115 75t146 27q60 0 114.5 -14t97.5 -44q43 -31 71.5 -78.5t34.5 -113.5h-161q-11 63 -50.5 92.5t-104.5 29.5q-94 0 -145.5 -64.5t-51.5 -174.5v-8q0 -52 11.5 -95.5
t35.5 -74.5q24 -32 61.5 -49.5t90.5 -17.5q45 0 77 12t53 33q21 20 31 47.5t11 58.5h-161v118h321v-76q0 -72 -22.5 -130.5t-65.5 -99.5q-43 -42 -105.5 -65t-142.5 -23z" />
    <glyph glyph-name="H" unicode="H" horiz-adv-x="764" 
d="M77 715h162v-292h287v292h162v-715h-162v295h-287v-295h-162v715z" />
    <glyph glyph-name="I" unicode="I" horiz-adv-x="325" 
d="M81 715h163v-715h-163v715z" />
    <glyph glyph-name="J" unicode="J" horiz-adv-x="457" 
d="M154 -9q-47 0 -73.5 6t-45.5 16v124q18 -7 38 -12t52 -5q46 0 73.5 25.5t27.5 87.5v482h163v-484q0 -122 -62 -181t-173 -59z" />
    <glyph glyph-name="K" unicode="K" horiz-adv-x="686" 
d="M77 715h162v-308l250 308h172l-283 -338l297 -377h-189l-247 321v-321h-162v715z" />
    <glyph glyph-name="L" unicode="L" horiz-adv-x="560" 
d="M77 715h162v-588h291v-127h-453v715z" />
    <glyph glyph-name="M" unicode="M" horiz-adv-x="911" 
d="M77 715h214l167 -445l165 445h210v-715h-161v502l-198 -502h-53l-199 502v-502h-145v715z" />
    <glyph glyph-name="N" unicode="N" horiz-adv-x="758" 
d="M77 715h188l272 -471v471h144v-715h-162l-298 509v-509h-144v715z" />
    <glyph glyph-name="O" unicode="O" horiz-adv-x="816" 
d="M410 118q45 0 81.5 17t62.5 48q25 30 39 74t14 98v8q0 52 -13.5 95t-38.5 74q-26 31 -63 48t-84 17t-83.5 -16.5t-62.5 -46.5q-26 -31 -39.5 -74.5t-13.5 -97.5v-8q0 -55 15 -98.5t42 -73.5q26 -31 63 -47.5t81 -16.5zM407 -11q-84 0 -152 27.5t-115 76.5q-48 48 -74 115
t-26 145v8q0 80 27.5 147t77.5 115q49 48 116 75t147 27q81 0 148.5 -26t116.5 -73q48 -48 75.5 -114t27.5 -147v-8q0 -80 -26.5 -147.5t-74.5 -116.5t-116 -76.5t-152 -27.5z" />
    <glyph glyph-name="P" unicode="P" horiz-adv-x="626" 
d="M77 715h247q131 0 202 -57t71 -171v-4q0 -57 -19 -98.5t-54 -69.5t-84.5 -41.5t-110.5 -13.5h-91v-260h-161v715zM320 373q61 0 91 27.5t30 81.5v4q0 57 -31.5 81.5t-89.5 24.5h-82v-219h82z" />
    <glyph glyph-name="Q" unicode="Q" horiz-adv-x="816" 
d="M542 10q-31 -10 -64.5 -15.5t-70.5 -5.5q-84 0 -152 27.5t-115 76.5q-48 48 -74 114.5t-26 145.5v8q0 80 27.5 147t77.5 115q49 48 116 75t147 27q81 0 148.5 -26t116.5 -73q48 -48 75.5 -114.5t27.5 -146.5v-8q0 -88 -30.5 -159.5t-87.5 -121.5l73 -78l-92 -91zM410 114
q9 0 17.5 0.5t16.5 1.5l-68 74l94 88l88 -95q23 32 36 75t13 97v8q0 52 -13.5 95t-38.5 74q-26 31 -63 48t-84 17q-94 0 -146.5 -63t-52.5 -172v-8q0 -57 15 -101.5t42 -74.5q26 -31 63 -47.5t81 -16.5z" />
    <glyph glyph-name="R" unicode="R" horiz-adv-x="672" 
d="M77 715h256q63 0 114 -13t87 -40t55.5 -68t19.5 -96v-4q0 -41 -11 -72t-31 -54t-47 -39t-58 -25l189 -304h-172l-171 276h-70v-276h-161v715zM329 386q61 0 91.5 26t30.5 77v4q0 55 -31.5 76.5t-90.5 21.5h-91v-205h91z" />
    <glyph glyph-name="S" unicode="S" horiz-adv-x="640" 
d="M327 -11q-74 0 -128 16.5t-90 47.5t-55 74t-22 97h155q3 -24 10 -45.5t23 -36.5q16 -16 41.5 -25.5t65.5 -9.5q54 0 86 26.5t32 68.5q0 21 -6.5 36t-21.5 26q-16 10 -42 17.5t-65 13.5q-69 9 -117.5 24.5t-79.5 41.5q-32 25 -46.5 62t-14.5 89q0 46 18.5 85t52.5 68
q34 28 82 44t107 16q121 0 189.5 -53.5t78.5 -160.5h-149q-7 48 -37 71.5t-82 23.5q-54 0 -80.5 -22.5t-26.5 -58.5q0 -19 5.5 -33.5t20.5 -24.5q14 -11 40 -19t67 -14q65 -8 114 -22.5t82 -38.5q33 -25 49.5 -63t16.5 -93q0 -48 -19 -89.5t-54 -71.5q-35 -31 -86 -49
t-114 -18z" />
    <glyph glyph-name="T" unicode="T" horiz-adv-x="597" 
d="M217 589h-193v126h549v-126h-193v-589h-163v589z" />
    <glyph glyph-name="U" unicode="U" horiz-adv-x="739" 
d="M366 -11q-142 0 -218.5 73.5t-76.5 216.5v436h163v-426q0 -90 29.5 -130.5t103.5 -40.5q72 0 105 39.5t33 137.5v420h163v-430q0 -147 -78 -221.5t-224 -74.5z" />
    <glyph glyph-name="V" unicode="V" horiz-adv-x="701" 
d="M19 715h171l170 -549l170 549h152l-238 -715h-186z" />
    <glyph glyph-name="W" unicode="W" horiz-adv-x="971" 
d="M21 715h164l112 -494l122 494h138l127 -497l116 497h150l-174 -715h-165l-129 494l-131 -494h-156z" />
    <glyph glyph-name="X" unicode="X" horiz-adv-x="719" 
d="M257 367l-210 348h183l136 -238l135 238h166l-204 -343l226 -372h-184l-155 266l-154 -266h-166z" />
    <glyph glyph-name="Y" unicode="Y" horiz-adv-x="648" 
d="M249 308l-236 407h178l145 -274l142 274h157l-223 -407v-308h-163v308z" />
    <glyph glyph-name="Z" unicode="Z" horiz-adv-x="615" 
d="M18 20l341 569h-303v126h532v-19l-334 -569h322v-127h-558v20z" />
    <glyph glyph-name="bracketleft" unicode="[" horiz-adv-x="390" 
d="M74 776h276v-107h-131v-710h131v-107h-276v924z" />
    <glyph glyph-name="backslash" unicode="\" horiz-adv-x="423" 
d="M10 776h118l308 -924h-118z" />
    <glyph glyph-name="bracketright" unicode="]" horiz-adv-x="390" 
d="M41 -41h130v710h-130v107h275v-924h-275v107z" />
    <glyph glyph-name="asciicircum" unicode="^" horiz-adv-x="522" 
d="M196 715h130l166 -316h-129l-103 198l-104 -198h-125z" />
    <glyph glyph-name="underscore" unicode="_" horiz-adv-x="419" 
d="M-1 -81h421v-79h-421v79z" />
    <glyph glyph-name="grave" unicode="`" horiz-adv-x="400" 
d="M51 753h152l57 -159h-105z" />
    <glyph glyph-name="a" unicode="a" horiz-adv-x="564" 
d="M205 -11q-36 0 -67.5 9t-55.5 28t-38 48.5t-14 70.5q0 46 20 78t56 52t86 29t110 9h59v21q0 47 -17.5 71.5t-67.5 24.5q-43 0 -63.5 -20t-25.5 -54h-137q3 46 22.5 80t50.5 56t72.5 32.5t89.5 10.5t88 -10.5t70 -33.5q29 -23 45 -60t16 -90v-341h-141v63
q-23 -32 -59.5 -53t-98.5 -21zM248 90q48 0 80.5 24.5t32.5 68.5v44h-56q-63 0 -98 -16t-35 -58q0 -29 18 -46t58 -17z" />
    <glyph glyph-name="b" unicode="b" horiz-adv-x="637" 
d="M376 -11q-61 0 -104 26.5t-63 67.5v-83h-145v760h145v-319q22 38 65.5 66t101.5 28q48 0 89.5 -17.5t72.5 -51.5t48.5 -84t17.5 -115v-8q0 -65 -17.5 -115t-47.5 -84q-31 -35 -72.5 -53t-90.5 -18zM333 102q60 0 92 39.5t32 116.5v8q0 80 -35 119t-90 39
q-57 0 -92.5 -39.5t-35.5 -118.5v-8q0 -79 34.5 -117.5t94.5 -38.5z" />
    <glyph glyph-name="c" unicode="c" horiz-adv-x="578" 
d="M301 -11q-57 0 -106.5 17.5t-85.5 51.5t-56.5 83.5t-20.5 113.5v8q0 63 21 113.5t58 86.5q37 35 86 53.5t105 18.5q45 0 87.5 -10.5t76.5 -34.5q33 -24 55 -63t27 -95h-137q-7 45 -33.5 67t-72.5 22q-57 0 -91 -40.5t-34 -115.5v-8q0 -79 33.5 -119t94.5 -40
q44 0 75.5 25t36.5 76h131q-3 -47 -21 -85.5t-50 -65.5q-32 -28 -77 -43.5t-102 -15.5z" />
    <glyph glyph-name="d" unicode="d" horiz-adv-x="637" 
d="M260 -11q-48 0 -89 17t-72 51q-31 33 -48.5 82.5t-17.5 114.5v8q0 64 17.5 115t48.5 86t73 53.5t91 18.5q63 0 103 -25t62 -65v315h144v-760h-144v87q-20 -40 -65 -69t-103 -29zM303 102q57 0 93 38.5t36 118.5v8q0 78 -32.5 117.5t-92.5 39.5q-61 0 -93.5 -40.5
t-32.5 -118.5v-8q0 -78 34 -116.5t88 -38.5z" />
    <glyph glyph-name="e" unicode="e" horiz-adv-x="587" 
d="M305 -11q-59 0 -109 18t-86 53q-37 34 -57.5 83t-20.5 112v8q0 62 20.5 112t57.5 86q36 35 85 54.5t106 19.5q51 0 97 -15.5t81 -47.5t56 -82.5t21 -120.5v-40h-377q3 -66 36.5 -101.5t93.5 -35.5q51 0 76.5 20t32.5 53h137q-13 -85 -77.5 -130.5t-172.5 -45.5zM415 318
q-4 60 -33 88.5t-81 28.5q-49 0 -80.5 -30.5t-39.5 -86.5h234z" />
    <glyph glyph-name="f" unicode="f" horiz-adv-x="371" 
d="M88 420h-69v103h69v60q0 92 49.5 137.5t137.5 45.5q23 0 40.5 -2.5t34.5 -7.5v-109q-11 4 -24 6.5t-29 2.5q-35 0 -50 -19.5t-15 -49.5v-64h114v-103h-114v-420h-144v420z" />
    <glyph glyph-name="g" unicode="g" horiz-adv-x="636" 
d="M296 -193q-63 0 -110 13t-78 37q-32 24 -49.5 57.5t-22.5 74.5h144q7 -35 33.5 -55.5t82.5 -20.5q66 0 99 33t33 95v79q-11 -19 -27.5 -36.5t-38.5 -30.5q-22 -14 -47.5 -22t-54.5 -8q-48 0 -89.5 17.5t-71.5 49.5q-31 32 -49 78.5t-18 104.5v7q0 56 17.5 103t48.5 81
q31 33 73 52t91 19q64 0 103.5 -25t62.5 -65v78h144v-482q-1 -117 -73.5 -175.5t-202.5 -58.5zM303 132q57 0 93 38t36 105v7q0 67 -33 105t-93 38q-61 0 -93.5 -39.5t-32.5 -104.5v-8q0 -66 34.5 -103.5t88.5 -37.5z" />
    <glyph glyph-name="h" unicode="h" horiz-adv-x="615" 
d="M64 760h145v-320q20 39 62 67t108 28q39 0 71 -12t56 -36q23 -25 36 -63.5t13 -90.5v-333h-145v312q0 54 -22 79.5t-70 25.5q-47 0 -78 -28.5t-31 -86.5v-302h-145v760z" />
    <glyph glyph-name="i" unicode="i" horiz-adv-x="281" 
d="M139 594q-35 0 -58.5 22.5t-23.5 56.5t23.5 56.5t58.5 22.5t59 -22.5t24 -56.5t-24 -56.5t-59 -22.5zM68 523h144v-523h-144v523z" />
    <glyph glyph-name="j" unicode="j" horiz-adv-x="281" 
d="M-1 -79q38 3 53.5 20t15.5 49v533h144v-532q0 -41 -10.5 -73.5t-34.5 -55.5q-25 -23 -66 -35.5t-102 -13.5v108zM139 594q-35 0 -58.5 22.5t-23.5 56.5t23.5 56.5t58.5 22.5t59 -22.5t24 -56.5t-24 -56.5t-59 -22.5z" />
    <glyph glyph-name="k" unicode="k" horiz-adv-x="555" 
d="M64 760h145v-458l168 221h154l-190 -238l205 -285h-164l-173 247v-247h-145v760z" />
    <glyph glyph-name="l" unicode="l" horiz-adv-x="280" 
d="M68 760h144v-760h-144v760z" />
    <glyph glyph-name="m" unicode="m" horiz-adv-x="923" 
d="M64 523h145v-80q20 37 60.5 64.5t99.5 27.5q52 0 89.5 -22t56.5 -69q32 48 79 69.5t97 21.5q36 0 67.5 -11.5t55.5 -35.5q23 -25 36 -63t13 -90v-335h-144v319q0 51 -21.5 74t-60.5 23q-42 0 -71.5 -26.5t-29.5 -80.5v-309h-144v319q0 51 -22 74t-60 23
q-42 0 -71.5 -26.5t-29.5 -80.5v-309h-145v523z" />
    <glyph glyph-name="n" unicode="n" horiz-adv-x="615" 
d="M64 523h145v-83q20 39 62 67t108 28q39 0 71 -12t56 -36q23 -25 36 -63.5t13 -90.5v-333h-145v312q0 54 -22 79.5t-70 25.5q-47 0 -78 -28.5t-31 -86.5v-302h-145v523z" />
    <glyph glyph-name="o" unicode="o" horiz-adv-x="616" 
d="M308 99q61 0 94.5 42t33.5 117v7q0 75 -33.5 117.5t-94.5 42.5q-60 0 -94 -41.5t-34 -116.5v-8q0 -75 33 -117.5t95 -42.5zM307 -11q-59 0 -109 19t-87 54q-37 34 -58 83.5t-21 110.5v8q0 61 21 111.5t58 85.5t87.5 54.5t109.5 19.5t109.5 -19t87.5 -54q36 -35 57 -84.5
t21 -110.5v-8q0 -62 -21 -112t-58 -85t-87.5 -54t-109.5 -19z" />
    <glyph glyph-name="p" unicode="p" horiz-adv-x="637" 
d="M64 523h145v-82q22 38 65.5 66t101.5 28q48 0 89.5 -17.5t72.5 -51.5t48.5 -84t17.5 -115v-8q0 -65 -17.5 -115t-47.5 -84q-31 -35 -72.5 -53t-90.5 -18q-61 0 -104 26.5t-63 64.5v-258h-145v701zM333 102q60 0 92 39.5t32 116.5v8q0 80 -35 119t-90 39
q-57 0 -92.5 -39.5t-35.5 -118.5v-8q0 -79 34.5 -117.5t94.5 -38.5z" />
    <glyph glyph-name="q" unicode="q" horiz-adv-x="637" 
d="M428 84q-10 -19 -27 -36t-38 -30q-22 -13 -48 -21t-55 -8q-48 0 -89 17t-72 51q-31 33 -48.5 82.5t-17.5 114.5v8q0 64 17.5 115t48.5 86t73 53.5t91 18.5q63 0 103 -25t62 -65v78h144v-701h-144v262zM303 102q57 0 93 38.5t36 118.5v8q0 78 -32.5 117.5t-92.5 39.5
q-61 0 -93.5 -40.5t-32.5 -118.5v-8q0 -78 34 -116.5t88 -38.5z" />
    <glyph glyph-name="r" unicode="r" horiz-adv-x="409" 
d="M64 523h145v-100q25 53 65 80t104 28v-135q-81 1 -125 -29t-44 -105v-262h-145v523z" />
    <glyph glyph-name="s" unicode="s" horiz-adv-x="502" 
d="M254 -11q-106 0 -165 45t-63 130h135q5 -35 24.5 -54.5t67.5 -19.5q42 0 62 15t20 42t-24.5 40.5t-81.5 21.5q-52 8 -88.5 20t-59.5 31q-24 19 -34.5 46.5t-10.5 65.5q0 41 17.5 71.5t46.5 51.5q28 20 65.5 30t77.5 10q43 0 80.5 -8.5t66.5 -27.5q28 -19 46 -50t23 -76
h-133q-6 32 -25 47.5t-57 15.5q-35 0 -54.5 -15t-19.5 -39q0 -25 22 -37t79 -20q49 -7 87 -18t64 -29q25 -19 38.5 -47t13.5 -70q0 -85 -58 -128.5t-162 -43.5z" />
    <glyph glyph-name="t" unicode="t" horiz-adv-x="377" 
d="M255 -10q-83 0 -126 41.5t-43 123.5v265h-67v103h67v113h144v-113h110v-103h-110v-252q0 -31 14.5 -46.5t43.5 -15.5q16 0 29.5 2.5t25.5 7.5v-112q-15 -5 -37 -9.5t-51 -4.5z" />
    <glyph glyph-name="u" unicode="u" horiz-adv-x="612" 
d="M238 -11q-38 0 -70.5 11.5t-56.5 35.5t-37.5 61.5t-13.5 88.5v337h144v-317q0 -52 23 -78.5t68 -26.5q46 0 77.5 28.5t31.5 86.5v307h144v-523h-144v82q-20 -40 -60.5 -66.5t-105.5 -26.5z" />
    <glyph glyph-name="v" unicode="v" horiz-adv-x="572" 
d="M14 523h155l125 -374l124 374h140l-190 -523h-163z" />
    <glyph glyph-name="w" unicode="w" horiz-adv-x="826" 
d="M16 523h152l93 -352l101 352h119l92 -352l99 352h139l-165 -523h-142l-89 328l-96 -328h-144z" />
    <glyph glyph-name="x" unicode="x" horiz-adv-x="574" 
d="M196 267l-167 256h166l98 -157l96 157h150l-167 -245l184 -278h-167l-110 176l-113 -176h-149z" />
    <glyph glyph-name="y" unicode="y" horiz-adv-x="567" 
d="M222 53l-208 470h156l127 -314l117 314h139l-283 -701h-140z" />
    <glyph glyph-name="z" unicode="z" horiz-adv-x="499" 
d="M14 16l258 395h-232v112h442v-18l-260 -393h250v-112h-458v16z" />
    <glyph glyph-name="braceleft" unicode="{" horiz-adv-x="405" 
d="M364 -147q-137 0 -199 52t-42 170l16 92q7 39 -16.5 68t-88.5 29v103q65 0 88.5 29t16.5 68l-16 91q-11 60 0 102.5t42 69.5q30 27 80.5 39t118.5 12v-106q-63 -2 -86.5 -26t-13.5 -88l15 -107q8 -53 -20 -87.5t-81 -47.5q54 -12 81.5 -46.5t19.5 -88.5l-15 -106
q-10 -65 13.5 -90t86.5 -27v-105z" />
    <glyph glyph-name="bar" unicode="|" horiz-adv-x="262" 
d="M79 776h104v-924h-104v924z" />
    <glyph glyph-name="braceright" unicode="}" horiz-adv-x="405" 
d="M40 -42q64 2 87 27t14 90l-15 106q-8 54 19.5 88.5t81.5 46.5q-54 13 -81.5 47.5t-19.5 87.5l15 107q9 64 -14 88t-87 26v106q68 0 118.5 -12t81.5 -39q30 -27 41 -69.5t1 -102.5l-16 -91q-3 -20 0.5 -37.5t16.5 -30.5q12 -13 33.5 -21t53.5 -8v-103q-32 0 -53.5 -8
t-33.5 -21q-13 -13 -16.5 -31t-0.5 -37l16 -92q20 -118 -42.5 -170t-199.5 -52v105z" />
    <glyph glyph-name="asciitilde" unicode="~" horiz-adv-x="492" 
d="M34 218q3 46 15 78.5t30 53.5t40.5 30.5t46.5 9.5q26 0 48 -7.5t40 -15.5l33 -17q15 -7 28 -7q18 0 30 12.5t15 36.5h98q-2 -44 -14 -76.5t-30 -53.5q-18 -22 -40.5 -32.5t-46.5 -10.5q-27 0 -49 7.5t-40 16.5q-18 8 -33 15.5t-28 7.5q-19 0 -30.5 -12.5t-14.5 -35.5h-98
z" />
    <glyph glyph-name="uni00A0" unicode="&#xa0;" horiz-adv-x="266" 
 />
    <glyph glyph-name="exclamdown" unicode="&#xa1;" horiz-adv-x="317" 
d="M99 375h118l22 -492h-162zM159 434q-38 0 -65 25t-27 62q0 18 7.5 33.5t20.5 27.5q12 12 28.5 18.5t35.5 6.5t35.5 -6.5t29.5 -18.5q12 -12 19 -27.5t7 -33.5q0 -37 -26.5 -62t-64.5 -25z" />
    <glyph glyph-name="cent" unicode="&#xa2;" horiz-adv-x="583" 
d="M272 -9q-52 5 -96 24.5t-76 53.5q-32 33 -50 80t-18 106v8q0 58 18.5 105.5t50.5 82.5q32 34 76 55t95 27v96h71v-96q41 -4 78 -17.5t66 -37.5q28 -25 46.5 -61t22.5 -85h-134q-5 39 -26 61t-53 30v-328q35 8 59.5 33.5t28.5 70.5h128q-5 -87 -62 -143t-154 -65v-126h-71
v126zM176 257q0 -68 25.5 -108t70.5 -52v325q-44 -12 -70 -52t-26 -105v-8z" />
    <glyph glyph-name="sterling" unicode="&#xa3;" horiz-adv-x="635" 
d="M39 396h57q-7 24 -11 50.5t-4 57.5q0 52 19.5 93t54.5 70q34 28 80.5 43t100.5 15q61 0 107 -16t78 -45q31 -29 47.5 -70t19.5 -91h-149q-8 49 -30.5 73.5t-68.5 24.5q-44 0 -71 -28t-27 -76q0 -27 2.5 -52t7.5 -49h191v-99h-171q3 -20 5 -40.5t2 -42.5q0 -17 -3.5 -32
t-8.5 -29q36 -11 66 -22.5t55 -11.5q32 0 51.5 15.5t21.5 53.5h144q-2 -42 -15 -78.5t-37 -62.5t-58 -41t-78 -15q-36 0 -67 8.5t-57 19.5q-26 10 -48.5 19t-41.5 9q-27 0 -40 -14t-15 -33h-123q2 25 9 49.5t20 45.5t32 37t45 25q4 12 6.5 26t2.5 31q0 21 -4 41.5t-10 41.5
h-87v99z" />
    <glyph glyph-name="yen" unicode="&#xa5;" horiz-adv-x="621" 
d="M71 356h144l-198 359h176l129 -266l126 266h155l-187 -359h145v-67h-164v-61h164v-66h-164v-162h-162v162h-164v66h164v61h-164v67z" />
    <glyph glyph-name="brokenbar" unicode="&#xa6;" horiz-adv-x="266" 
d="M79 300h104v-448h-104v448zM79 776h104v-406h-104v406z" />
    <glyph glyph-name="section" unicode="&#xa7;" horiz-adv-x="582" 
d="M283 -137q-97 0 -152 46.5t-58 129.5h135q2 -34 19.5 -54t56.5 -20q38 0 56 17.5t18 44.5q0 15 -5.5 25.5t-18.5 19.5q-14 9 -37 17t-58 17q-48 12 -86.5 26.5t-65.5 36.5q-28 22 -43 51.5t-15 71.5q0 51 29.5 85t80.5 51q-26 23 -38.5 52t-12.5 68q0 40 16.5 72.5
t45.5 56.5q28 23 66.5 35.5t82.5 12.5q96 0 149.5 -46t56.5 -128h-133q-3 33 -19.5 51.5t-55.5 18.5q-38 0 -55.5 -18t-17.5 -44q0 -15 5 -26t18 -20q12 -9 34.5 -16.5t57.5 -16.5q47 -11 86 -25t68 -35q28 -21 44 -51.5t16 -74.5q0 -48 -29 -83t-80 -54q25 -22 37.5 -51
t12.5 -68q0 -38 -16 -70.5t-44 -55.5t-66.5 -36t-84.5 -13zM353 210q32 8 46 24t14 40q0 16 -6.5 27t-19.5 20q-14 8 -34.5 15.5t-47.5 15.5l-76 23q-29 -5 -44.5 -22t-15.5 -43q0 -29 27 -44.5t83 -32.5z" />
    <glyph glyph-name="dieresis" unicode="&#xa8;" horiz-adv-x="400" 
d="M98 600q-31 0 -52.5 21t-21.5 51t21.5 51t52.5 21t52.5 -21t21.5 -51t-21.5 -51t-52.5 -21zM302 600q-31 0 -52.5 21t-21.5 51t21.5 51t52.5 21t52.5 -21t21.5 -51t-21.5 -51t-52.5 -21z" />
    <glyph glyph-name="copyright" unicode="&#xa9;" horiz-adv-x="843" 
d="M426 152q-101 0 -152.5 55t-51.5 146v8q0 46 15 83t42 64q27 26 64 40.5t80 14.5q76 0 126 -36.5t56 -113.5h-109q-4 33 -22.5 49t-50.5 16q-42 0 -65.5 -30t-23.5 -87v-7q0 -57 23 -86.5t68 -29.5q32 0 53.5 17t26.5 52h104q-3 -38 -17.5 -67t-38.5 -48
q-24 -20 -56.5 -30t-70.5 -10zM421 32q65 0 123.5 23.5t102.5 66.5t69.5 103.5t25.5 133.5q0 72 -25 131.5t-68 102.5q-44 43 -102 66.5t-124 23.5q-67 0 -126 -24t-102 -67q-44 -43 -69 -103t-25 -132q0 -73 26 -133t70 -102q43 -43 101 -66.5t123 -23.5zM421 -16
q-78 0 -147 28.5t-120 79.5q-51 50 -80.5 118t-29.5 147q0 78 29.5 146t80.5 119t120 80t149 29t149 -29t120 -79q50 -51 79 -118.5t29 -145.5q0 -80 -29.5 -148.5t-80.5 -118.5q-52 -50 -121 -79t-148 -29z" />
    <glyph glyph-name="ordfeminine" unicode="&#xaa;" horiz-adv-x="460" 
d="M169 288q-29 0 -54.5 7t-44.5 23q-19 15 -30.5 38.5t-11.5 56.5q0 37 15.5 62t43.5 41q28 15 68 22t90 7h47v19q0 33 -13.5 50t-47.5 17q-32 0 -46.5 -15t-18.5 -38h-122q3 37 18 64.5t41 45.5q25 18 59 27t75 9t74.5 -9t57.5 -27q24 -19 37 -49t13 -72v-269h-125v49
q-17 -24 -46 -41.5t-79 -17.5zM210 378q35 0 58.5 17t23.5 49v31h-43q-45 0 -69 -11.5t-24 -40.5q0 -22 12.5 -33.5t41.5 -11.5z" />
    <glyph glyph-name="guillemotleft" unicode="&#xab;" horiz-adv-x="487" 
d="M41 261l127 186h103l-122 -186l122 -186h-103zM220 261l127 186h103l-122 -186l122 -186h-103z" />
    <glyph glyph-name="uni00AD" unicode="&#xad;" horiz-adv-x="376" 
d="M60 339h256v-115h-256v115z" />
    <glyph glyph-name="registered" unicode="&#xae;" horiz-adv-x="516" 
d="M176 615h85q43 0 66 -17t23 -52v-1q0 -24 -11.5 -37.5t-28.5 -21.5l53 -90h-64l-45 79h-16v-79h-62v219zM258 515q16 0 24 7t8 20v1q0 13 -8 19t-24 6h-20v-53h20zM258 319q39 0 72.5 13.5t58.5 37.5t39 58t14 75t-13.5 75t-37.5 58q-25 24 -59 37.5t-74 13.5t-74 -13.5
t-58 -37.5q-25 -25 -38.5 -59t-13.5 -75t14.5 -75t39.5 -58q24 -24 57.5 -37t72.5 -13zM258 281q-47 0 -88.5 17t-72.5 47q-31 29 -48.5 69.5t-17.5 87.5q0 46 17.5 86.5t48.5 71.5q31 30 72 47.5t89 17.5t89.5 -17.5t71.5 -47.5t47.5 -70.5t17.5 -86.5q0 -47 -17.5 -87.5
t-47.5 -70.5q-31 -30 -72.5 -47t-88.5 -17z" />
    <glyph glyph-name="macron" unicode="&#xaf;" horiz-adv-x="400" 
d="M54 712h291v-87h-291v87z" />
    <glyph glyph-name="degree" unicode="&#xb0;" horiz-adv-x="443" 
d="M222 456q40 0 65 29t25 71q0 44 -25 73t-65 29q-41 0 -67 -29t-26 -73q0 -42 26 -71t67 -29zM222 390q-36 0 -67 13.5t-54 36.5q-24 22 -37.5 52t-13.5 64t13.5 65t37.5 54q23 22 54 35.5t67 13.5t67 -13.5t54 -35.5q23 -23 36.5 -54t13.5 -65t-13.5 -64t-36.5 -52
q-23 -23 -54 -36.5t-67 -13.5z" />
    <glyph glyph-name="plusminus" unicode="&#xb1;" horiz-adv-x="552" 
d="M217 336h-180v108h180v172h118v-172h180v-108h-180v-171h-118v171zM37 100h480v-100h-480v100z" />
    <glyph glyph-name="twosuperior" unicode="&#xb2;" horiz-adv-x="329" 
d="M0 366l128 134q29 30 46 53.5t17 46.5q0 18 -9.5 28.5t-28.5 10.5q-20 0 -31.5 -13.5t-15.5 -43.5h-99q3 68 43 103t108 35q70 0 104.5 -32t34.5 -81q0 -38 -20 -68t-52 -61l-49 -48h124v-78h-300v14z" />
    <glyph glyph-name="threesuperior" unicode="&#xb3;" horiz-adv-x="351" 
d="M174 345q-40 0 -68.5 9.5t-47.5 25.5q-19 17 -28.5 40t-10.5 51h96q2 -21 14.5 -35t38.5 -14q24 0 36 11t12 30q0 21 -12.5 31t-37.5 10h-29v64h28q25 0 37 10t12 30q0 16 -10 26t-30 10t-33 -12t-16 -33h-96q4 53 41 87t106 34q67 0 104 -27t37 -73q0 -31 -17 -50.5
t-47 -27.5q32 -6 52.5 -27.5t20.5 -54.5q0 -52 -38.5 -83.5t-113.5 -31.5z" />
    <glyph glyph-name="acute" unicode="&#xb4;" horiz-adv-x="400" 
d="M197 753h152l-104 -159h-105z" />
    <glyph glyph-name="paragraph" unicode="&#xb6;" horiz-adv-x="564" 
d="M263 335h-10q-49 0 -89.5 11.5t-68.5 35.5q-29 23 -45 58t-16 82q0 49 16.5 85t45.5 60t69 36t88 12h233v-815h-74v754h-76v-754h-73v435z" />
    <glyph glyph-name="periodcentered" unicode="&#xb7;" horiz-adv-x="293" 
d="M146 239q-38 0 -63.5 25.5t-25.5 62.5q0 36 25.5 61.5t63.5 25.5t64 -25.5t26 -61.5q0 -18 -7 -34t-19 -28t-28.5 -19t-35.5 -7z" />
    <glyph glyph-name="cedilla" unicode="&#xb8;" horiz-adv-x="400" 
d="M205 -222q-51 0 -81.5 24t-35.5 66h74q2 -12 11.5 -21.5t26.5 -9.5t26 9.5t9 23.5t-9 22.5t-25 8.5q-11 0 -18.5 -3t-12.5 -7l-36 35l45 74h65l-29 -48q20 2 38.5 -2t33.5 -15q14 -10 23 -26.5t9 -40.5q0 -44 -32 -67t-82 -23z" />
    <glyph glyph-name="onesuperior" unicode="&#xb9;" horiz-adv-x="266" 
d="M103 610l-82 -49v89l97 65h95v-363h-110v258z" />
    <glyph glyph-name="ordmasculine" unicode="&#xba;" horiz-adv-x="511" 
d="M256 386q45 0 68 31t23 87v6q0 55 -23 85.5t-68 30.5q-44 0 -68 -30t-24 -86v-6q0 -57 23.5 -87.5t68.5 -30.5zM255 288q-47 0 -88 14.5t-71 42.5q-30 27 -47 66.5t-17 88.5v6q0 50 17 90.5t47 69.5q30 28 71 43t89 15t88.5 -15t70.5 -42q30 -28 47 -67.5t17 -88.5v-6
q0 -50 -17 -90.5t-47 -68.5t-71 -43t-89 -15z" />
    <glyph glyph-name="guillemotright" unicode="&#xbb;" horiz-adv-x="487" 
d="M159 261l-121 186h103l126 -186l-126 -186h-103zM338 261l-121 186h103l126 -186l-126 -186h-103z" />
    <glyph glyph-name="onequarter" unicode="&#xbc;" horiz-adv-x="753" 
d="M106 610l-82 -49v89l97 65h95v-363h-110v258zM600 715h84l-540 -715h-84zM578 69h-181v40l155 254h131v-221h47v-73h-47v-69h-105v69zM581 142v147l-85 -147h85z" />
    <glyph glyph-name="onehalf" unicode="&#xbd;" horiz-adv-x="766" 
d="M106 610l-82 -49v89l97 65h95v-363h-110v258zM587 715h84l-540 -715h-84zM433 14l128 134q29 30 46 53.5t17 46.5q0 18 -9.5 28.5t-28.5 10.5q-20 0 -31.5 -13.5t-15.5 -43.5h-99q3 68 43 103t108 35q70 0 104.5 -32t34.5 -81q0 -38 -20 -68t-52 -61l-49 -48h124v-78
h-300v14z" />
    <glyph glyph-name="threequarters" unicode="&#xbe;" horiz-adv-x="773" 
d="M171 345q-40 0 -68.5 9.5t-47.5 25.5q-19 17 -28.5 40t-10.5 51h96q2 -21 14.5 -35t38.5 -14q24 0 36 11t12 30q0 21 -12.5 31t-37.5 10h-29v64h28q25 0 37 10t12 30q0 16 -10 26t-30 10t-33 -12t-16 -33h-96q4 53 41 87t106 34q67 0 104 -27t37 -73q0 -31 -17 -50.5
t-47 -27.5q32 -6 52.5 -27.5t20.5 -54.5q0 -52 -38.5 -83.5t-113.5 -31.5zM637 715h84l-540 -715h-84zM590 69h-181v40l155 254h131v-221h47v-73h-47v-69h-105v69zM593 142v147l-85 -147h85z" />
    <glyph glyph-name="questiondown" unicode="&#xbf;" horiz-adv-x="532" 
d="M359 345q0 -29 -9 -53.5t-23 -44.5q-14 -21 -31.5 -39t-35.5 -35q-28 -26 -48 -51.5t-20 -55.5q0 -35 18.5 -55t58.5 -20q42 0 68 27.5t31 75.5h139q-2 -52 -21 -92.5t-51 -69.5q-33 -28 -77.5 -43t-97.5 -15q-56 0 -97.5 13t-69.5 37t-42 57t-14 73q0 25 7 47t18 41
t26 35.5t31 32.5q18 18 36 34.5t33 33.5t25 34.5t12 37.5v25h134v-30zM293 607q38 0 64.5 -25t26.5 -61q0 -18 -7 -34t-19 -27q-13 -12 -29.5 -19t-35.5 -7t-35.5 7t-28.5 19q-13 11 -20 27t-7 34t7 33.5t20 27.5q12 12 28.5 18.5t35.5 6.5z" />
    <glyph glyph-name="Agrave" unicode="&#xc0;" horiz-adv-x="720" 
d="M250 715h211l232 -715h-169l-49 159h-259l-49 -159h-152zM251 274h189l-94 309zM207 902h156l52 -139h-109z" />
    <glyph glyph-name="Aacute" unicode="&#xc1;" horiz-adv-x="720" 
d="M256 715h211l232 -715h-169l-49 159h-259l-49 -159h-152zM257 274h189l-94 309zM350 902h157l-101 -139h-109z" />
    <glyph glyph-name="Acircumflex" unicode="&#xc2;" horiz-adv-x="720" 
d="M256 715h211l232 -715h-169l-49 159h-259l-49 -159h-152zM257 274h189l-94 309zM299 902h123l108 -139h-104l-68 53l-69 -53h-102z" />
    <glyph glyph-name="Atilde" unicode="&#xc3;" horiz-adv-x="720" 
d="M256 715h211l232 -715h-169l-49 159h-259l-49 -159h-152zM257 274h189l-94 309zM420 764q-20 0 -36 6t-30 13q-14 6 -26 12t-23 6q-14 0 -23 -10.5t-12 -26.5h-86q5 69 37 104.5t77 35.5q18 0 34 -6t31 -13q14 -7 26.5 -13t24.5 -6q14 0 22.5 10.5t11.5 26.5h87
q-6 -69 -39 -104t-76 -35z" />
    <glyph glyph-name="Adieresis" unicode="&#xc4;" horiz-adv-x="720" 
d="M256 715h211l232 -715h-169l-49 159h-259l-49 -159h-152zM257 274h189l-94 309zM251 769q-31 0 -52.5 21.5t-21.5 51.5t21.5 51t52.5 21q30 0 52 -21t22 -51t-22 -51.5t-52 -21.5zM466 769q-30 0 -51.5 21.5t-21.5 51.5t21.5 51t51.5 21q31 0 52.5 -21t21.5 -51
t-21.5 -51.5t-52.5 -21.5z" />
    <glyph glyph-name="Aring" unicode="&#xc5;" horiz-adv-x="720" 
d="M250 715h211l232 -715h-169l-49 159h-259l-49 -159h-152zM251 274h189l-94 309zM353 808q21 0 35 15t14 38t-14 38.5t-35 15.5q-22 0 -35.5 -15.5t-13.5 -38.5t13.5 -38t35.5 -15zM353 750q-24 0 -44.5 9t-36.5 24t-25 35t-9 43t9 43.5t25 35.5t36.5 24t44.5 9t44.5 -9
t36.5 -24t25 -35.5t9 -43.5t-9 -43t-25 -35t-36.5 -24t-44.5 -9z" />
    <glyph glyph-name="AE" unicode="&#xc6;" horiz-adv-x="983" 
d="M357 715h574v-126h-300v-167h239v-118h-239v-178h317v-126h-479v168h-218l-77 -168h-157zM303 280h166v309h-24z" />
    <glyph glyph-name="Ccedilla" unicode="&#xc7;" horiz-adv-x="748" 
d="M379 -222q-51 0 -81.5 24t-35.5 66h74q2 -12 11.5 -21.5t26.5 -9.5t26 9.5t9 23.5t-9 22.5t-25 8.5q-11 0 -18.5 -3t-12.5 -7l-36 35l40 66q-75 7 -132.5 35.5t-96.5 75.5t-59 110t-20 140v8q0 81 27 148.5t75 115.5q47 48 112 74.5t141 26.5q64 0 119.5 -16t97.5 -48
q41 -32 67.5 -81t32.5 -115h-166q-9 65 -45.5 98.5t-104.5 33.5q-85 0 -135 -62t-50 -174v-8q0 -112 48.5 -173t137.5 -61q67 0 110.5 34t53.5 103h159q-7 -65 -32 -114t-65 -83q-41 -34 -94.5 -51.5t-117.5 -19.5l-22 -37q20 2 38.5 -2t33.5 -15q14 -10 23 -26.5t9 -40.5
q0 -44 -32 -67t-82 -23z" />
    <glyph glyph-name="Egrave" unicode="&#xc8;" horiz-adv-x="595" 
d="M77 715h466v-126h-305v-167h244v-118h-244v-178h321v-126h-482v715zM171 902h156l52 -139h-109z" />
    <glyph glyph-name="Eacute" unicode="&#xc9;" horiz-adv-x="595" 
d="M77 715h466v-126h-305v-167h244v-118h-244v-178h321v-126h-482v715zM308 902h157l-101 -139h-109z" />
    <glyph glyph-name="Ecircumflex" unicode="&#xca;" horiz-adv-x="595" 
d="M77 715h466v-126h-305v-167h244v-118h-244v-178h321v-126h-482v715zM257 902h123l108 -139h-104l-68 53l-69 -53h-102z" />
    <glyph glyph-name="Edieresis" unicode="&#xcb;" horiz-adv-x="595" 
d="M209 769q-31 0 -52.5 21.5t-21.5 51.5t21.5 51t52.5 21q30 0 52 -21t22 -51t-22 -51.5t-52 -21.5zM424 769q-30 0 -51.5 21.5t-21.5 51.5t21.5 51t51.5 21q31 0 52.5 -21t21.5 -51t-21.5 -51.5t-52.5 -21.5zM77 715h466v-126h-305v-167h244v-118h-244v-178h321v-126h-482
v715z" />
    <glyph glyph-name="Igrave" unicode="&#xcc;" horiz-adv-x="319" 
d="M75 715h163v-715h-163v715zM10 902h156l52 -139h-109z" />
    <glyph glyph-name="Iacute" unicode="&#xcd;" horiz-adv-x="325" 
d="M81 715h163v-715h-163v715zM153 902h157l-101 -139h-109z" />
    <glyph glyph-name="Icircumflex" unicode="&#xce;" horiz-adv-x="325" 
d="M75 715h163v-715h-163v715zM96 902h123l108 -139h-104l-68 53l-69 -53h-102z" />
    <glyph glyph-name="Idieresis" unicode="&#xcf;" horiz-adv-x="325" 
d="M54 769q-31 0 -52.5 21.5t-21.5 51.5t21.5 51t52.5 21q30 0 52 -21t22 -51t-22 -51.5t-52 -21.5zM269 769q-30 0 -51.5 21.5t-21.5 51.5t21.5 51t51.5 21q31 0 52.5 -21t21.5 -51t-21.5 -51.5t-52.5 -21.5zM81 715h163v-715h-163v715z" />
    <glyph glyph-name="Eth" unicode="&#xd0;" horiz-adv-x="753" 
d="M31 415h65v300h234q94 0 164.5 -24.5t117.5 -69.5q46 -46 69.5 -111t23.5 -145v-8q0 -80 -23.5 -146t-70.5 -113t-117.5 -72.5t-164.5 -25.5h-233v303h-65v112zM324 126q109 0 160.5 58.5t51.5 170.5v8q0 111 -50 168.5t-163 57.5h-67v-174h151v-112h-151v-177h68z" />
    <glyph glyph-name="Ntilde" unicode="&#xd1;" horiz-adv-x="758" 
d="M71 715h188l272 -471v471h144v-715h-162l-298 509v-509h-144v715zM449 764q-20 0 -36 6t-30 13q-14 6 -26 12t-23 6q-14 0 -23 -10.5t-12 -26.5h-86q5 69 37 104.5t77 35.5q18 0 34 -6t31 -13q14 -7 26.5 -13t24.5 -6q14 0 22.5 10.5t11.5 26.5h87q-6 -69 -39 -104
t-76 -35z" />
    <glyph glyph-name="Ograve" unicode="&#xd2;" horiz-adv-x="816" 
d="M410 118q45 0 81.5 17t62.5 48q25 30 39 74t14 98v8q0 52 -13.5 95t-38.5 74q-26 31 -63 48t-84 17t-83.5 -16.5t-62.5 -46.5q-26 -31 -39.5 -74.5t-13.5 -97.5v-8q0 -55 15 -98.5t42 -73.5q26 -31 63 -47.5t81 -16.5zM407 -11q-84 0 -152 27.5t-115 76.5q-48 48 -74 115
t-26 145v8q0 80 27.5 147t77.5 115q49 48 116 75t147 27q81 0 148.5 -26t116.5 -73q48 -48 75.5 -114t27.5 -147v-8q0 -80 -26.5 -147.5t-74.5 -116.5t-116 -76.5t-152 -27.5zM261 902h156l52 -139h-109z" />
    <glyph glyph-name="Oacute" unicode="&#xd3;" horiz-adv-x="816" 
d="M404 118q45 0 81.5 17t62.5 48q25 30 39 74t14 98v8q0 52 -13.5 95t-38.5 74q-26 31 -63 48t-84 17t-83.5 -16.5t-62.5 -46.5q-26 -31 -39.5 -74.5t-13.5 -97.5v-8q0 -55 15 -98.5t42 -73.5q26 -31 63 -47.5t81 -16.5zM401 -11q-84 0 -152 27.5t-115 76.5q-48 48 -74 115
t-26 145v8q0 80 27.5 147t77.5 115q49 48 116 75t147 27q81 0 148.5 -26t116.5 -73q48 -48 75.5 -114t27.5 -147v-8q0 -80 -26.5 -147.5t-74.5 -116.5t-116 -76.5t-152 -27.5zM392 902h157l-101 -139h-109z" />
    <glyph glyph-name="Ocircumflex" unicode="&#xd4;" horiz-adv-x="816" 
d="M404 118q45 0 81.5 17t62.5 48q25 30 39 74t14 98v8q0 52 -13.5 95t-38.5 74q-26 31 -63 48t-84 17t-83.5 -16.5t-62.5 -46.5q-26 -31 -39.5 -74.5t-13.5 -97.5v-8q0 -55 15 -98.5t42 -73.5q26 -31 63 -47.5t81 -16.5zM401 -11q-84 0 -152 27.5t-115 76.5q-48 48 -74 115
t-26 145v8q0 80 27.5 147t77.5 115q49 48 116 75t147 27q81 0 148.5 -26t116.5 -73q48 -48 75.5 -114t27.5 -147v-8q0 -80 -26.5 -147.5t-74.5 -116.5t-116 -76.5t-152 -27.5zM341 902h123l108 -139h-104l-68 53l-69 -53h-102z" />
    <glyph glyph-name="Otilde" unicode="&#xd5;" horiz-adv-x="816" 
d="M404 118q45 0 81.5 17t62.5 48q25 30 39 74t14 98v8q0 52 -13.5 95t-38.5 74q-26 31 -63 48t-84 17t-83.5 -16.5t-62.5 -46.5q-26 -31 -39.5 -74.5t-13.5 -97.5v-8q0 -55 15 -98.5t42 -73.5q26 -31 63 -47.5t81 -16.5zM401 -11q-84 0 -152 27.5t-115 76.5q-48 48 -74 115
t-26 145v8q0 80 27.5 147t77.5 115q49 48 116 75t147 27q81 0 148.5 -26t116.5 -73q48 -48 75.5 -114t27.5 -147v-8q0 -80 -26.5 -147.5t-74.5 -116.5t-116 -76.5t-152 -27.5zM462 764q-20 0 -36 6t-30 13q-14 6 -26 12t-23 6q-14 0 -23 -10.5t-12 -26.5h-86q5 69 37 104.5
t77 35.5q18 0 34 -6t31 -13q14 -7 26.5 -13t24.5 -6q14 0 22.5 10.5t11.5 26.5h87q-6 -69 -39 -104t-76 -35z" />
    <glyph glyph-name="Odieresis" unicode="&#xd6;" horiz-adv-x="816" 
d="M404 118q45 0 81.5 17t62.5 48q25 30 39 74t14 98v8q0 52 -13.5 95t-38.5 74q-26 31 -63 48t-84 17t-83.5 -16.5t-62.5 -46.5q-26 -31 -39.5 -74.5t-13.5 -97.5v-8q0 -55 15 -98.5t42 -73.5q26 -31 63 -47.5t81 -16.5zM401 -11q-84 0 -152 27.5t-115 76.5q-48 48 -74 115
t-26 145v8q0 80 27.5 147t77.5 115q49 48 116 75t147 27q81 0 148.5 -26t116.5 -73q48 -48 75.5 -114t27.5 -147v-8q0 -80 -26.5 -147.5t-74.5 -116.5t-116 -76.5t-152 -27.5zM293 769q-31 0 -52.5 21.5t-21.5 51.5t21.5 51t52.5 21q30 0 52 -21t22 -51t-22 -51.5t-52 -21.5
zM508 769q-30 0 -51.5 21.5t-21.5 51.5t21.5 51t51.5 21q31 0 52.5 -21t21.5 -51t-21.5 -51.5t-52.5 -21.5z" />
    <glyph glyph-name="multiply" unicode="&#xd7;" horiz-adv-x="533" 
d="M36 182l153 153l-154 154l77 78l154 -155l153 153l78 -77l-154 -153l155 -154l-78 -78l-154 155l-153 -153z" />
    <glyph glyph-name="Oslash" unicode="&#xd8;" horiz-adv-x="816" 
d="M33 21l87 93q-39 47 -59.5 107.5t-20.5 131.5v8q0 80 27.5 147t77.5 115q49 48 116 75t147 27q65 0 121 -17t101 -48l76 81l54 -54l-73 -78q42 -47 65.5 -108.5t23.5 -135.5v-8q0 -80 -26.5 -147.5t-74.5 -116.5t-116 -76.5t-152 -27.5q-70 0 -128.5 18.5t-104.5 53.5
l-87 -93zM410 118q46 0 82.5 17t62.5 48q26 30 40 74t14 98v8q0 38 -7 71t-21 61l-306 -327q27 -25 60.5 -37.5t74.5 -12.5zM207 354q0 -35 6 -65.5t17 -56.5l303 324q-25 21 -56 31t-69 10q-94 0 -147.5 -63t-53.5 -172v-8z" />
    <glyph glyph-name="Ugrave" unicode="&#xd9;" horiz-adv-x="739" 
d="M360 -11q-142 0 -218.5 73.5t-76.5 216.5v436h163v-426q0 -90 29.5 -130.5t103.5 -40.5q72 0 105 39.5t33 137.5v420h163v-430q0 -147 -78 -221.5t-224 -74.5zM216 902h156l52 -139h-109z" />
    <glyph glyph-name="Uacute" unicode="&#xda;" horiz-adv-x="739" 
d="M360 -11q-142 0 -218.5 73.5t-76.5 216.5v436h163v-426q0 -90 29.5 -130.5t103.5 -40.5q72 0 105 39.5t33 137.5v420h163v-430q0 -147 -78 -221.5t-224 -74.5zM353 902h157l-101 -139h-109z" />
    <glyph glyph-name="Ucircumflex" unicode="&#xdb;" horiz-adv-x="739" 
d="M360 -11q-142 0 -218.5 73.5t-76.5 216.5v436h163v-426q0 -90 29.5 -130.5t103.5 -40.5q72 0 105 39.5t33 137.5v420h163v-430q0 -147 -78 -221.5t-224 -74.5zM302 902h123l108 -139h-104l-68 53l-69 -53h-102z" />
    <glyph glyph-name="Udieresis" unicode="&#xdc;" horiz-adv-x="739" 
d="M254 769q-31 0 -52.5 21.5t-21.5 51.5t21.5 51t52.5 21q30 0 52 -21t22 -51t-22 -51.5t-52 -21.5zM469 769q-30 0 -51.5 21.5t-21.5 51.5t21.5 51t51.5 21q31 0 52.5 -21t21.5 -51t-21.5 -51.5t-52.5 -21.5zM360 -11q-142 0 -218.5 73.5t-76.5 216.5v436h163v-426
q0 -90 29.5 -130.5t103.5 -40.5q72 0 105 39.5t33 137.5v420h163v-430q0 -147 -78 -221.5t-224 -74.5z" />
    <glyph glyph-name="Yacute" unicode="&#xdd;" horiz-adv-x="648" 
d="M243 308l-236 407h178l145 -274l142 274h157l-223 -407v-308h-163v308zM313 902h157l-101 -139h-109z" />
    <glyph glyph-name="Thorn" unicode="&#xde;" horiz-adv-x="626" 
d="M77 715h161v-123h86q130 0 201.5 -53.5t71.5 -167.5v-4q0 -56 -19 -97.5t-54 -68.5q-35 -28 -84.5 -41.5t-110.5 -13.5h-91v-146h-161v715zM320 260q61 0 91 27t30 80v4q0 57 -31.5 80t-89.5 23h-82v-214h82z" />
    <glyph glyph-name="germandbls" unicode="&#xdf;" horiz-adv-x="619" 
d="M364 -10q-32 0 -56.5 4.5t-37.5 8.5v112q11 -5 27 -8.5t36 -3.5t39.5 5.5t34.5 20.5q15 14 24.5 38.5t9.5 63.5v6q0 73 -44 106.5t-115 32.5v110q31 0 53 8.5t36 22.5q13 13 19 30.5t6 35.5v4q0 41 -23.5 63.5t-68.5 22.5q-44 0 -70 -29.5t-26 -80.5v-563h-144v552
q0 56 20 97.5t54 69.5q33 27 78 40.5t95 13.5q51 0 92 -12t70 -35q29 -24 44.5 -58t15.5 -77v-2q0 -51 -32.5 -91.5t-86.5 -57.5q36 -9 68 -26.5t56 -43.5q23 -27 36.5 -62t13.5 -78v-7q0 -62 -17.5 -106t-47.5 -72q-31 -28 -72 -41.5t-87 -13.5z" />
    <glyph glyph-name="agrave" unicode="&#xe0;" horiz-adv-x="564" 
d="M205 -11q-36 0 -67.5 9t-55.5 28t-38 48.5t-14 70.5q0 46 20 78t56 52t86 29t110 9h59v21q0 47 -17.5 71.5t-67.5 24.5q-43 0 -63.5 -20t-25.5 -54h-137q3 46 22.5 80t50.5 56t72.5 32.5t89.5 10.5t88 -10.5t70 -33.5q29 -23 45 -60t16 -90v-341h-141v63
q-23 -32 -59.5 -53t-98.5 -21zM248 90q48 0 80.5 24.5t32.5 68.5v44h-56q-63 0 -98 -16t-35 -58q0 -29 18 -46t58 -17zM133 753h152l57 -159h-105z" />
    <glyph glyph-name="aacute" unicode="&#xe1;" horiz-adv-x="564" 
d="M205 -11q-36 0 -67.5 9t-55.5 28t-38 48.5t-14 70.5q0 46 20 78t56 52t86 29t110 9h59v21q0 47 -17.5 71.5t-67.5 24.5q-43 0 -63.5 -20t-25.5 -54h-137q3 46 22.5 80t50.5 56t72.5 32.5t89.5 10.5t88 -10.5t70 -33.5q29 -23 45 -60t16 -90v-341h-141v63
q-23 -32 -59.5 -53t-98.5 -21zM248 90q48 0 80.5 24.5t32.5 68.5v44h-56q-63 0 -98 -16t-35 -58q0 -29 18 -46t58 -17zM283 753h152l-104 -159h-105z" />
    <glyph glyph-name="acircumflex" unicode="&#xe2;" horiz-adv-x="564" 
d="M199 -11q-36 0 -67.5 9t-55.5 28t-38 48.5t-14 70.5q0 46 20 78t56 52t86 29t110 9h59v21q0 47 -17.5 71.5t-67.5 24.5q-43 0 -63.5 -20t-25.5 -54h-137q3 46 22.5 80t50.5 56t72.5 32.5t89.5 10.5t88 -10.5t70 -33.5q29 -23 45 -60t16 -90v-341h-141v63
q-23 -32 -59.5 -53t-98.5 -21zM242 90q48 0 80.5 24.5t32.5 68.5v44h-56q-63 0 -98 -16t-35 -58q0 -29 18 -46t58 -17zM218 751h109l114 -156h-102l-69 63l-70 -63h-99z" />
    <glyph glyph-name="atilde" unicode="&#xe3;" horiz-adv-x="564" 
d="M205 -11q-36 0 -67.5 9t-55.5 28t-38 48.5t-14 70.5q0 46 20 78t56 52t86 29t110 9h59v21q0 47 -17.5 71.5t-67.5 24.5q-43 0 -63.5 -20t-25.5 -54h-137q3 46 22.5 80t50.5 56t72.5 32.5t89.5 10.5t88 -10.5t70 -33.5q29 -23 45 -60t16 -90v-341h-141v63
q-23 -32 -59.5 -53t-98.5 -21zM248 90q48 0 80.5 24.5t32.5 68.5v44h-56q-63 0 -98 -16t-35 -58q0 -29 18 -46t58 -17zM344 598q-19 0 -35 6t-29 13l-26 13q-12 6 -23 6q-13 0 -22.5 -10.5t-12.5 -26.5h-83q5 69 35 105t75 36q18 0 34 -6t30 -12q14 -7 26.5 -13t24.5 -6
q14 0 22.5 10t11.5 27h84q-6 -70 -37.5 -106t-74.5 -36z" />
    <glyph glyph-name="adieresis" unicode="&#xe4;" horiz-adv-x="564" 
d="M205 -11q-36 0 -67.5 9t-55.5 28t-38 48.5t-14 70.5q0 46 20 78t56 52t86 29t110 9h59v21q0 47 -17.5 71.5t-67.5 24.5q-43 0 -63.5 -20t-25.5 -54h-137q3 46 22.5 80t50.5 56t72.5 32.5t89.5 10.5t88 -10.5t70 -33.5q29 -23 45 -60t16 -90v-341h-141v63
q-23 -32 -59.5 -53t-98.5 -21zM248 90q48 0 80.5 24.5t32.5 68.5v44h-56q-63 0 -98 -16t-35 -58q0 -29 18 -46t58 -17zM182 600q-31 0 -52.5 21t-21.5 51t21.5 51t52.5 21t52.5 -21t21.5 -51t-21.5 -51t-52.5 -21zM386 600q-31 0 -52.5 21t-21.5 51t21.5 51t52.5 21
t52.5 -21t21.5 -51t-21.5 -51t-52.5 -21z" />
    <glyph glyph-name="aring" unicode="&#xe5;" horiz-adv-x="564" 
d="M199 -11q-36 0 -67.5 9t-55.5 28t-38 48.5t-14 70.5q0 46 20 78t56 52t86 29t110 9h59v21q0 47 -17.5 71.5t-67.5 24.5q-43 0 -63.5 -20t-25.5 -54h-137q3 46 22.5 80t50.5 56t72.5 32.5t89.5 10.5t88 -10.5t70 -33.5q29 -23 45 -60t16 -90v-341h-141v63
q-23 -32 -59.5 -53t-98.5 -21zM242 90q48 0 80.5 24.5t32.5 68.5v44h-56q-63 0 -98 -16t-35 -58q0 -29 18 -46t58 -17zM280 643q21 0 35 15t14 38t-14 38.5t-35 15.5q-22 0 -35.5 -15.5t-13.5 -38.5t13.5 -38t35.5 -15zM280 585q-24 0 -44.5 9t-36.5 24t-25 35t-9 43t9 43.5
t25 35.5t36.5 24t44.5 9t44.5 -9t36.5 -24t25 -35.5t9 -43.5t-9 -43t-25 -35t-36.5 -24t-44.5 -9z" />
    <glyph glyph-name="ae" unicode="&#xe6;" horiz-adv-x="898" 
d="M623 -11q-69 0 -119.5 24.5t-81.5 72.5q-34 -48 -82.5 -72.5t-123.5 -24.5q-38 0 -72 9t-59 28q-26 19 -40.5 48.5t-14.5 70.5q0 46 20 78.5t56 53.5q35 20 84.5 29.5t109.5 9.5h62v18q0 47 -18.5 71.5t-66.5 24.5q-44 0 -64.5 -19.5t-25.5 -54.5h-137q3 46 22.5 80
t50.5 56q30 22 70.5 32.5t86.5 10.5q58 0 100.5 -16t66.5 -54q32 34 74.5 52t96.5 18q49 0 94.5 -15t79.5 -47t54.5 -82.5t20.5 -121.5v-39h-367q4 -66 34.5 -102t89.5 -36q49 0 74 20t31 53h136q-12 -85 -75 -130.5t-167 -45.5zM248 90q51 0 82.5 24.5t31.5 68.5v46h-59
q-61 0 -96 -15.5t-35 -57.5q0 -31 18 -48.5t58 -17.5zM726 316q-4 60 -31 89.5t-77 29.5q-48 0 -78.5 -31t-37.5 -88h224z" />
    <glyph glyph-name="ccedilla" unicode="&#xe7;" horiz-adv-x="578" 
d="M282 -222q-51 0 -81.5 24t-35.5 66h74q2 -12 11.5 -21.5t26.5 -9.5t26 9.5t9 23.5t-9 22.5t-25 8.5q-11 0 -18.5 -3t-12.5 -7l-36 35l40 67q-48 7 -88 27.5t-69 53.5q-30 33 -46 78.5t-16 102.5v8q0 63 21 113.5t58 86.5q37 35 86 53.5t105 18.5q45 0 87.5 -10.5
t76.5 -34.5q33 -24 55 -63t27 -95h-137q-7 45 -33.5 67t-72.5 22q-57 0 -91 -40.5t-34 -115.5v-8q0 -79 33.5 -119t94.5 -40q44 0 75.5 25t36.5 76h131q-6 -91 -67.5 -148.5t-169.5 -61.5l-22 -37q20 2 38.5 -2t33.5 -15q14 -10 23 -26.5t9 -40.5q0 -44 -32 -67t-82 -23z
" />
    <glyph glyph-name="egrave" unicode="&#xe8;" horiz-adv-x="587" 
d="M299 -11q-59 0 -109 18t-86 53q-37 34 -57.5 83t-20.5 112v8q0 62 20.5 112t57.5 86q36 35 85 54.5t106 19.5q51 0 97 -15.5t81 -47.5t56 -82.5t21 -120.5v-40h-377q3 -66 36.5 -101.5t93.5 -35.5q51 0 76.5 20t32.5 53h137q-13 -85 -77.5 -130.5t-172.5 -45.5zM409 318
q-4 60 -33 88.5t-81 28.5q-49 0 -80.5 -30.5t-39.5 -86.5h234zM141 753h152l57 -159h-105z" />
    <glyph glyph-name="eacute" unicode="&#xe9;" horiz-adv-x="587" 
d="M299 -11q-59 0 -109 18t-86 53q-37 34 -57.5 83t-20.5 112v8q0 62 20.5 112t57.5 86q36 35 85 54.5t106 19.5q51 0 97 -15.5t81 -47.5t56 -82.5t21 -120.5v-40h-377q3 -66 36.5 -101.5t93.5 -35.5q51 0 76.5 20t32.5 53h137q-13 -85 -77.5 -130.5t-172.5 -45.5zM409 318
q-4 60 -33 88.5t-81 28.5q-49 0 -80.5 -30.5t-39.5 -86.5h234zM291 753h152l-104 -159h-105z" />
    <glyph glyph-name="ecircumflex" unicode="&#xea;" horiz-adv-x="587" 
d="M299 -11q-59 0 -109 18t-86 53q-37 34 -57.5 83t-20.5 112v8q0 62 20.5 112t57.5 86q36 35 85 54.5t106 19.5q51 0 97 -15.5t81 -47.5t56 -82.5t21 -120.5v-40h-377q3 -66 36.5 -101.5t93.5 -35.5q51 0 76.5 20t32.5 53h137q-13 -85 -77.5 -130.5t-172.5 -45.5zM409 318
q-4 60 -33 88.5t-81 28.5q-49 0 -80.5 -30.5t-39.5 -86.5h234zM239 751h109l114 -156h-102l-69 63l-70 -63h-99z" />
    <glyph glyph-name="edieresis" unicode="&#xeb;" horiz-adv-x="587" 
d="M190 600q-31 0 -52.5 21t-21.5 51t21.5 51t52.5 21t52.5 -21t21.5 -51t-21.5 -51t-52.5 -21zM394 600q-31 0 -52.5 21t-21.5 51t21.5 51t52.5 21t52.5 -21t21.5 -51t-21.5 -51t-52.5 -21zM299 -11q-59 0 -109 18t-86 53q-37 34 -57.5 83t-20.5 112v8q0 62 20.5 112
t57.5 86q36 35 85 54.5t106 19.5q51 0 97 -15.5t81 -47.5t56 -82.5t21 -120.5v-40h-377q3 -66 36.5 -101.5t93.5 -35.5q51 0 76.5 20t32.5 53h137q-13 -85 -77.5 -130.5t-172.5 -45.5zM409 318q-4 60 -33 88.5t-81 28.5q-49 0 -80.5 -30.5t-39.5 -86.5h234z" />
    <glyph glyph-name="igrave" unicode="&#xec;" horiz-adv-x="281" 
d="M68 523h144v-523h-144v523zM-10 753h152l57 -159h-105z" />
    <glyph glyph-name="iacute" unicode="&#xed;" horiz-adv-x="287" 
d="M140 753h152l-104 -159h-105zM68 523h144v-523h-144v523z" />
    <glyph glyph-name="icircumflex" unicode="&#xee;" horiz-adv-x="281" 
d="M82 751h109l114 -156h-102l-69 63l-70 -63h-99zM62 523h144v-523h-144v523z" />
    <glyph glyph-name="idieresis" unicode="&#xef;" horiz-adv-x="281" 
d="M40 600q-30 0 -51.5 21t-21.5 51t21.5 51t51.5 21q31 0 52.5 -21t21.5 -51t-21.5 -51t-52.5 -21zM239 600q-30 0 -51.5 21t-21.5 51t21.5 51t51.5 21q31 0 52.5 -21t21.5 -51t-21.5 -51t-52.5 -21zM68 523h144v-523h-144v523z" />
    <glyph glyph-name="eth" unicode="&#xf0;" horiz-adv-x="616" 
d="M131 619l106 46q-31 26 -62.5 50t-60.5 45h165q17 -10 34.5 -21.5t35.5 -25.5l99 43l25 -58l-69 -30q34 -32 66.5 -72t57.5 -86q25 -47 40 -100.5t15 -112.5v-22q0 -65 -20 -118t-57 -90q-37 -38 -88 -58t-113 -20q-59 0 -108.5 19t-86.5 55q-37 35 -57.5 85t-20.5 113
v10q0 60 20 107.5t53 81.5t75.5 52t87.5 18q43 0 71.5 -14t51.5 -40q-18 38 -45 73.5t-59 68.5l-130 -56zM308 99q61 0 94.5 42t33.5 117v7q0 75 -33 117.5t-94 42.5q-60 0 -94.5 -41.5t-34.5 -116.5v-8q0 -76 33 -118t95 -42z" />
    <glyph glyph-name="ntilde" unicode="&#xf1;" horiz-adv-x="615" 
d="M58 523h145v-83q20 39 62 67t108 28q39 0 71 -12t56 -36q23 -25 36 -63.5t13 -90.5v-333h-145v312q0 54 -22 79.5t-70 25.5q-47 0 -78 -28.5t-31 -86.5v-302h-145v523zM361 598q-19 0 -35 6t-29 13l-26 13q-12 6 -23 6q-13 0 -22.5 -10.5t-12.5 -26.5h-83q5 69 35 105
t75 36q18 0 34 -6t30 -12q14 -7 26.5 -13t24.5 -6q14 0 22.5 10t11.5 27h84q-6 -70 -37.5 -106t-74.5 -36z" />
    <glyph glyph-name="ograve" unicode="&#xf2;" horiz-adv-x="616" 
d="M302 99q61 0 94.5 42t33.5 117v7q0 75 -33.5 117.5t-94.5 42.5q-60 0 -94 -41.5t-34 -116.5v-8q0 -75 33 -117.5t95 -42.5zM301 -11q-59 0 -109 19t-87 54q-37 34 -58 83.5t-21 110.5v8q0 61 21 111.5t58 85.5t87.5 54.5t109.5 19.5t109.5 -19t87.5 -54q36 -35 57 -84.5
t21 -110.5v-8q0 -62 -21 -112t-58 -85t-87.5 -54t-109.5 -19zM150 753h152l57 -159h-105z" />
    <glyph glyph-name="oacute" unicode="&#xf3;" horiz-adv-x="616" 
d="M302 99q61 0 94.5 42t33.5 117v7q0 75 -33.5 117.5t-94.5 42.5q-60 0 -94 -41.5t-34 -116.5v-8q0 -75 33 -117.5t95 -42.5zM301 -11q-59 0 -109 19t-87 54q-37 34 -58 83.5t-21 110.5v8q0 61 21 111.5t58 85.5t87.5 54.5t109.5 19.5t109.5 -19t87.5 -54q36 -35 57 -84.5
t21 -110.5v-8q0 -62 -21 -112t-58 -85t-87.5 -54t-109.5 -19zM300 753h152l-104 -159h-105z" />
    <glyph glyph-name="ocircumflex" unicode="&#xf4;" horiz-adv-x="616" 
d="M302 99q61 0 94.5 42t33.5 117v7q0 75 -33.5 117.5t-94.5 42.5q-60 0 -94 -41.5t-34 -116.5v-8q0 -75 33 -117.5t95 -42.5zM301 -11q-59 0 -109 19t-87 54q-37 34 -58 83.5t-21 110.5v8q0 61 21 111.5t58 85.5t87.5 54.5t109.5 19.5t109.5 -19t87.5 -54q36 -35 57 -84.5
t21 -110.5v-8q0 -62 -21 -112t-58 -85t-87.5 -54t-109.5 -19zM248 751h109l114 -156h-102l-69 63l-70 -63h-99z" />
    <glyph glyph-name="otilde" unicode="&#xf5;" horiz-adv-x="616" 
d="M302 99q61 0 94.5 42t33.5 117v7q0 75 -33.5 117.5t-94.5 42.5q-60 0 -94 -41.5t-34 -116.5v-8q0 -75 33 -117.5t95 -42.5zM301 -11q-59 0 -109 19t-87 54q-37 34 -58 83.5t-21 110.5v8q0 61 21 111.5t58 85.5t87.5 54.5t109.5 19.5t109.5 -19t87.5 -54q36 -35 57 -84.5
t21 -110.5v-8q0 -62 -21 -112t-58 -85t-87.5 -54t-109.5 -19zM361 598q-19 0 -35 6t-29 13l-26 13q-12 6 -23 6q-13 0 -22.5 -10.5t-12.5 -26.5h-83q5 69 35 105t75 36q18 0 34 -6t30 -12q14 -7 26.5 -13t24.5 -6q14 0 22.5 10t11.5 27h84q-6 -70 -37.5 -106t-74.5 -36z" />
    <glyph glyph-name="odieresis" unicode="&#xf6;" horiz-adv-x="616" 
d="M199 600q-31 0 -52.5 21t-21.5 51t21.5 51t52.5 21t52.5 -21t21.5 -51t-21.5 -51t-52.5 -21zM403 600q-31 0 -52.5 21t-21.5 51t21.5 51t52.5 21t52.5 -21t21.5 -51t-21.5 -51t-52.5 -21zM302 99q61 0 94.5 42t33.5 117v7q0 75 -33.5 117.5t-94.5 42.5q-60 0 -94 -41.5
t-34 -116.5v-8q0 -75 33 -117.5t95 -42.5zM301 -11q-59 0 -109 19t-87 54q-37 34 -58 83.5t-21 110.5v8q0 61 21 111.5t58 85.5t87.5 54.5t109.5 19.5t109.5 -19t87.5 -54q36 -35 57 -84.5t21 -110.5v-8q0 -62 -21 -112t-58 -85t-87.5 -54t-109.5 -19z" />
    <glyph glyph-name="divide" unicode="&#xf7;" horiz-adv-x="553" 
d="M276 60q-35 0 -59 23.5t-24 58.5q0 34 24 58t59 24t59 -24t24 -58q0 -35 -24 -58.5t-59 -23.5zM37 393h479v-104h-479v104zM276 458q-35 0 -59 23.5t-24 58.5t24 58.5t59 23.5t59 -23.5t24 -58.5t-24 -58.5t-59 -23.5z" />
    <glyph glyph-name="oslash" unicode="&#xf8;" horiz-adv-x="616" 
d="M22 6l70 75q-29 34 -44.5 77.5t-15.5 97.5v8q0 61 21 111.5t58 85.5t87.5 54.5t109.5 19.5q47 0 87.5 -11.5t73.5 -34.5l66 71l49 -44l-65 -70q30 -34 47 -79t17 -100v-8q0 -62 -21 -112t-58 -85t-87.5 -54t-109.5 -19q-48 0 -90 12.5t-76 35.5l-70 -75zM308 98
q62 0 95.5 42.5t33.5 117.5v7q0 23 -3.5 42t-9.5 36l-200 -216q16 -14 37 -21.5t47 -7.5zM179 259q0 -21 2.5 -39.5t7.5 -33.5l197 213q-15 13 -34.5 19.5t-43.5 6.5q-61 0 -95 -41.5t-34 -116.5v-8z" />
    <glyph glyph-name="ugrave" unicode="&#xf9;" horiz-adv-x="612" 
d="M148 753h152l57 -159h-105zM232 -11q-38 0 -70.5 11.5t-56.5 35.5t-37.5 61.5t-13.5 88.5v337h144v-317q0 -52 23 -78.5t68 -26.5q46 0 77.5 28.5t31.5 86.5v307h144v-523h-144v82q-20 -40 -60.5 -66.5t-105.5 -26.5z" />
    <glyph glyph-name="uacute" unicode="&#xfa;" horiz-adv-x="612" 
d="M298 753h152l-104 -159h-105zM232 -11q-38 0 -70.5 11.5t-56.5 35.5t-37.5 61.5t-13.5 88.5v337h144v-317q0 -52 23 -78.5t68 -26.5q46 0 77.5 28.5t31.5 86.5v307h144v-523h-144v82q-20 -40 -60.5 -66.5t-105.5 -26.5z" />
    <glyph glyph-name="ucircumflex" unicode="&#xfb;" horiz-adv-x="612" 
d="M246 751h109l114 -156h-102l-69 63l-70 -63h-99zM232 -11q-38 0 -70.5 11.5t-56.5 35.5t-37.5 61.5t-13.5 88.5v337h144v-317q0 -52 23 -78.5t68 -26.5q46 0 77.5 28.5t31.5 86.5v307h144v-523h-144v82q-20 -40 -60.5 -66.5t-105.5 -26.5z" />
    <glyph glyph-name="udieresis" unicode="&#xfc;" horiz-adv-x="612" 
d="M197 600q-31 0 -52.5 21t-21.5 51t21.5 51t52.5 21t52.5 -21t21.5 -51t-21.5 -51t-52.5 -21zM401 600q-31 0 -52.5 21t-21.5 51t21.5 51t52.5 21t52.5 -21t21.5 -51t-21.5 -51t-52.5 -21zM232 -11q-38 0 -70.5 11.5t-56.5 35.5t-37.5 61.5t-13.5 88.5v337h144v-317
q0 -52 23 -78.5t68 -26.5q46 0 77.5 28.5t31.5 86.5v307h144v-523h-144v82q-20 -40 -60.5 -66.5t-105.5 -26.5z" />
    <glyph glyph-name="yacute" unicode="&#xfd;" horiz-adv-x="567" 
d="M292 753h152l-104 -159h-105zM222 53l-208 470h156l127 -314l117 314h139l-283 -701h-140z" />
    <glyph glyph-name="thorn" unicode="&#xfe;" horiz-adv-x="637" 
d="M64 760h145v-319q22 38 65.5 66t101.5 28q48 0 89.5 -17.5t72.5 -51.5t48.5 -84t17.5 -115v-8q0 -65 -17.5 -115t-47.5 -84q-31 -35 -72.5 -53t-90.5 -18q-61 0 -104 26.5t-63 64.5v-258h-145v938zM333 102q60 0 92 39.5t32 116.5v8q0 80 -35 119t-90 39
q-57 0 -92.5 -39.5t-35.5 -118.5v-8q0 -79 34.5 -117.5t94.5 -38.5z" />
    <glyph glyph-name="ydieresis" unicode="&#xff;" horiz-adv-x="567" 
d="M185 600q-31 0 -52.5 21t-21.5 51t21.5 51t52.5 21t52.5 -21t21.5 -51t-21.5 -51t-52.5 -21zM389 600q-31 0 -52.5 21t-21.5 51t21.5 51t52.5 21t52.5 -21t21.5 -51t-21.5 -51t-52.5 -21zM216 53l-208 470h156l127 -314l117 314h139l-283 -701h-140z" />
    <glyph glyph-name="Amacron" unicode="&#x100;" horiz-adv-x="720" 
d="M256 715h211l232 -715h-169l-49 159h-259l-49 -159h-152zM257 274h189l-94 309zM208 868h302v-91h-302v91z" />
    <glyph glyph-name="amacron" unicode="&#x101;" horiz-adv-x="564" 
d="M199 -11q-36 0 -67.5 9t-55.5 28t-38 48.5t-14 70.5q0 46 20 78t56 52t86 29t110 9h59v21q0 47 -17.5 71.5t-67.5 24.5q-43 0 -63.5 -20t-25.5 -54h-137q3 46 22.5 80t50.5 56t72.5 32.5t89.5 10.5t88 -10.5t70 -33.5q29 -23 45 -60t16 -90v-341h-141v63
q-23 -32 -59.5 -53t-98.5 -21zM242 90q48 0 80.5 24.5t32.5 68.5v44h-56q-63 0 -98 -16t-35 -58q0 -29 18 -46t58 -17zM132 712h291v-87h-291v87z" />
    <glyph glyph-name="Abreve" unicode="&#x102;" horiz-adv-x="720" 
d="M250 715h211l232 -715h-169l-49 159h-259l-49 -159h-152zM251 274h189l-94 309zM352 757q-67 0 -108 40t-45 106h97q4 -24 17.5 -38t38.5 -14t39.5 14t19.5 38h96q-5 -66 -47 -106t-108 -40z" />
    <glyph glyph-name="abreve" unicode="&#x103;" horiz-adv-x="564" 
d="M205 -11q-36 0 -67.5 9t-55.5 28t-38 48.5t-14 70.5q0 46 20 78t56 52t86 29t110 9h59v21q0 47 -17.5 71.5t-67.5 24.5q-43 0 -63.5 -20t-25.5 -54h-137q3 46 22.5 80t50.5 56t72.5 32.5t89.5 10.5t88 -10.5t70 -33.5q29 -23 45 -60t16 -90v-341h-141v63
q-23 -32 -59.5 -53t-98.5 -21zM248 90q48 0 80.5 24.5t32.5 68.5v44h-56q-63 0 -98 -16t-35 -58q0 -29 18 -46t58 -17zM283 598q-66 0 -107 40t-45 109h95q3 -25 17 -39.5t40 -14.5t41 14.5t20 39.5h93q-4 -69 -47 -109t-107 -40z" />
    <glyph glyph-name="Aogonek" unicode="&#x104;" horiz-adv-x="720" 
d="M618 -182q-54 0 -85.5 21.5t-31.5 59.5q0 35 25.5 60t57.5 41h-54l-49 159h-259l-49 -159h-152l235 715h211l229 -705q-35 -20 -51.5 -40.5t-16.5 -38.5q0 -30 33 -30q23 0 38 7v-75q-14 -6 -33.5 -10.5t-47.5 -4.5zM257 274h189l-94 309z" />
    <glyph glyph-name="aogonek" unicode="&#x105;" horiz-adv-x="564" 
d="M430 -182q-51 0 -81.5 21t-30.5 59q0 36 25.5 61.5t57.5 40.5h-38v63q-23 -32 -59.5 -53t-98.5 -21q-36 0 -67.5 9t-55.5 28t-38 48.5t-14 70.5q0 46 20 78t56 52t86 29t110 9h59v21q0 47 -17.5 71.5t-67.5 24.5q-43 0 -63.5 -20t-25.5 -54h-137q3 46 22.5 80t50.5 56
t72.5 32.5t89.5 10.5t88 -10.5t69.5 -33.5t45.5 -60t16 -90v-333q-34 -22 -49 -41t-15 -38q0 -31 33 -31q23 0 38 7v-72q-14 -6 -33 -10.5t-48 -4.5zM248 90q48 0 80.5 24.5t32.5 68.5v44h-56q-63 0 -98 -16t-35 -58q0 -29 18 -46t58 -17z" />
    <glyph glyph-name="Cacute" unicode="&#x106;" horiz-adv-x="748" 
d="M393 -11q-88 0 -155 26t-112 74q-46 47 -69 114t-23 150v8q0 81 27 148.5t75 115.5q47 48 112 74.5t141 26.5q64 0 119.5 -16t97.5 -48q41 -32 67.5 -81t32.5 -115h-166q-9 65 -45.5 98.5t-104.5 33.5q-85 0 -135 -62t-50 -174v-8q0 -112 48.5 -173t137.5 -61
q67 0 110.5 34t53.5 103h159q-7 -66 -33 -116.5t-68 -83.5q-42 -34 -98 -51t-122 -17zM379 902h157l-101 -139h-109z" />
    <glyph glyph-name="cacute" unicode="&#x107;" horiz-adv-x="578" 
d="M295 -11q-57 0 -106.5 17.5t-85.5 51.5t-56.5 83.5t-20.5 113.5v8q0 63 21 113.5t58 86.5q37 35 86 53.5t105 18.5q45 0 87.5 -10.5t76.5 -34.5q33 -24 55 -63t27 -95h-137q-7 45 -33.5 67t-72.5 22q-57 0 -91 -40.5t-34 -115.5v-8q0 -79 33.5 -119t94.5 -40
q44 0 75.5 25t36.5 76h131q-3 -47 -21 -85.5t-50 -65.5q-32 -28 -77 -43.5t-102 -15.5zM291 753h152l-104 -159h-105z" />
    <glyph glyph-name="Ccircumflex" unicode="&#x108;" horiz-adv-x="748" 
d="M399 -11q-88 0 -155 26t-112 74q-46 47 -69 114t-23 150v8q0 81 27 148.5t75 115.5q47 48 112 74.5t141 26.5q64 0 119.5 -16t97.5 -48q41 -32 67.5 -81t32.5 -115h-166q-9 65 -45.5 98.5t-104.5 33.5q-85 0 -135 -62t-50 -174v-8q0 -112 48.5 -173t137.5 -61
q67 0 110.5 34t53.5 103h159q-7 -66 -33 -116.5t-68 -83.5q-42 -34 -98 -51t-122 -17zM334 902h123l108 -139h-104l-68 53l-69 -53h-102z" />
    <glyph glyph-name="ccircumflex" unicode="&#x109;" horiz-adv-x="578" 
d="M295 -11q-57 0 -106.5 17.5t-85.5 51.5t-56.5 83.5t-20.5 113.5v8q0 63 21 113.5t58 86.5q37 35 86 53.5t105 18.5q45 0 87.5 -10.5t76.5 -34.5q33 -24 55 -63t27 -95h-137q-7 45 -33.5 67t-72.5 22q-57 0 -91 -40.5t-34 -115.5v-8q0 -79 33.5 -119t94.5 -40
q44 0 75.5 25t36.5 76h131q-3 -47 -21 -85.5t-50 -65.5q-32 -28 -77 -43.5t-102 -15.5zM240 751h109l114 -156h-102l-69 63l-70 -63h-99z" />
    <glyph glyph-name="Cdotaccent" unicode="&#x10a;" horiz-adv-x="748" 
d="M393 -11q-88 0 -155 26t-112 74q-46 47 -69 114t-23 150v8q0 81 27 148.5t75 115.5q47 48 112 74.5t141 26.5q64 0 119.5 -16t97.5 -48q41 -32 67.5 -81t32.5 -115h-166q-9 65 -45.5 98.5t-104.5 33.5q-85 0 -135 -62t-50 -174v-8q0 -112 48.5 -173t137.5 -61
q67 0 110.5 34t53.5 103h159q-7 -66 -33 -116.5t-68 -83.5q-42 -34 -98 -51t-122 -17zM386 768q-35 0 -58 22.5t-23 54.5t23 54.5t58 22.5q34 0 57 -22.5t23 -54.5t-23 -54.5t-57 -22.5z" />
    <glyph glyph-name="cdotaccent" unicode="&#x10b;" horiz-adv-x="578" 
d="M295 -11q-57 0 -106.5 17.5t-85.5 51.5t-56.5 83.5t-20.5 113.5v8q0 63 21 113.5t58 86.5q37 35 86 53.5t105 18.5q45 0 87.5 -10.5t76.5 -34.5q33 -24 55 -63t27 -95h-137q-7 45 -33.5 67t-72.5 22q-57 0 -91 -40.5t-34 -115.5v-8q0 -79 33.5 -119t94.5 -40
q44 0 75.5 25t36.5 76h131q-3 -47 -21 -85.5t-50 -65.5q-32 -28 -77 -43.5t-102 -15.5zM294 598q-35 0 -58 22.5t-23 54.5t23 54.5t58 22.5q34 0 57 -22.5t23 -54.5t-23 -54.5t-57 -22.5z" />
    <glyph glyph-name="Ccaron" unicode="&#x10c;" horiz-adv-x="748" 
d="M393 -11q-88 0 -155 26t-112 74q-46 47 -69 114t-23 150v8q0 81 27 148.5t75 115.5q47 48 112 74.5t141 26.5q64 0 119.5 -16t97.5 -48q41 -32 67.5 -81t32.5 -115h-166q-9 65 -45.5 98.5t-104.5 33.5q-85 0 -135 -62t-50 -174v-8q0 -112 48.5 -173t137.5 -61
q67 0 110.5 34t53.5 103h159q-7 -66 -33 -116.5t-68 -83.5q-42 -34 -98 -51t-122 -17zM216 902h104l69 -52l68 52h102l-112 -139h-123z" />
    <glyph glyph-name="ccaron" unicode="&#x10d;" horiz-adv-x="578" 
d="M295 -11q-57 0 -106.5 17.5t-85.5 51.5t-56.5 83.5t-20.5 113.5v8q0 63 21 113.5t58 86.5q37 35 86 53.5t105 18.5q45 0 87.5 -10.5t76.5 -34.5q33 -24 55 -63t27 -95h-137q-7 45 -33.5 67t-72.5 22q-57 0 -91 -40.5t-34 -115.5v-8q0 -79 33.5 -119t94.5 -40
q44 0 75.5 25t36.5 76h131q-3 -47 -21 -85.5t-50 -65.5q-32 -28 -77 -43.5t-102 -15.5zM123 751h102l69 -63l69 63h100l-117 -156h-109z" />
    <glyph glyph-name="Dcaron" unicode="&#x10e;" horiz-adv-x="726" 
d="M299 126q109 0 160.5 58.5t51.5 170.5v8q0 110 -50.5 168t-163.5 58h-64v-463h66zM71 715h234q94 0 164.5 -24.5t117.5 -69.5q46 -46 69.5 -111t23.5 -145v-8q0 -80 -23.5 -146t-70.5 -113t-117.5 -72.5t-164.5 -25.5h-233v715zM151 902h104l69 -52l68 52h102l-112 -139
h-123z" />
    <glyph glyph-name="dcaron" unicode="&#x10f;" horiz-adv-x="631" 
d="M254 -11q-48 0 -89 17t-72 51q-31 33 -48.5 82.5t-17.5 114.5v8q0 64 17.5 115t48.5 86t73 53.5t91 18.5q63 0 103 -25t62 -65v315h144v-760h-144v87q-20 -40 -65 -69t-103 -29zM297 102q57 0 93 38.5t36 118.5v8q0 78 -32.5 117.5t-92.5 39.5q-61 0 -93.5 -40.5
t-32.5 -118.5v-8q0 -78 34 -116.5t88 -38.5zM617 760h119l-49 -174h-80z" />
    <glyph glyph-name="Dcroat" unicode="&#x110;" horiz-adv-x="753" 
d="M31 415h65v300h234q94 0 164.5 -24.5t117 -70t70 -110.5t23.5 -145v-8q0 -80 -23.5 -146t-70.5 -113t-117.5 -72.5t-164.5 -25.5h-233v303h-65v112zM324 126q109 0 160.5 58.5t51.5 170.5v8q0 111 -50 168.5t-163 57.5h-67v-174h151v-112h-151v-177h68z" />
    <glyph glyph-name="dcroat" unicode="&#x111;" horiz-adv-x="637" 
d="M265 680h163v80h144v-80h64v-83h-64v-597h-144v87q-20 -40 -65 -69t-103 -29q-48 0 -89 17t-72 50.5t-48.5 83t-17.5 114.5v8q0 64 17.5 115t48.5 86t73 53.5t91 18.5q63 0 103 -25t62 -65v152h-163v83zM303 102q57 0 93 38.5t36 118.5v8q0 78 -32.5 117.5t-92.5 39.5
q-61 0 -93.5 -40.5t-32.5 -118.5v-8q0 -78 34 -116.5t88 -38.5z" />
    <glyph glyph-name="Emacron" unicode="&#x112;" horiz-adv-x="595" 
d="M77 715h466v-126h-305v-167h244v-118h-244v-178h321v-126h-482v715zM166 868h302v-91h-302v91z" />
    <glyph glyph-name="emacron" unicode="&#x113;" horiz-adv-x="587" 
d="M299 -11q-59 0 -109 18t-86 53q-37 34 -57.5 83t-20.5 112v8q0 62 20.5 112t57.5 86q36 35 85 54.5t106 19.5q51 0 97 -15.5t81 -47.5t56 -82.5t21 -120.5v-40h-377q3 -66 36.5 -101.5t93.5 -35.5q51 0 76.5 20t32.5 53h137q-13 -85 -77.5 -130.5t-172.5 -45.5zM409 318
q-4 60 -33 88.5t-81 28.5q-49 0 -80.5 -30.5t-39.5 -86.5h234zM146 712h291v-87h-291v87z" />
    <glyph glyph-name="Ebreve" unicode="&#x114;" horiz-adv-x="595" 
d="M77 715h466v-126h-305v-167h244v-118h-244v-178h321v-126h-482v715zM318 757q-67 0 -108 40t-45 106h97q4 -24 17.5 -38t38.5 -14t39.5 14t19.5 38h96q-5 -66 -47 -106t-108 -40z" />
    <glyph glyph-name="ebreve" unicode="&#x115;" horiz-adv-x="587" 
d="M299 -11q-59 0 -109 18t-86 53q-37 34 -57.5 83t-20.5 112v8q0 62 20.5 112t57.5 86q36 35 85 54.5t106 19.5q51 0 97 -15.5t81 -47.5t56 -82.5t21 -120.5v-40h-377q3 -66 36.5 -101.5t93.5 -35.5q51 0 76.5 20t32.5 53h137q-13 -85 -77.5 -130.5t-172.5 -45.5zM409 318
q-4 60 -33 88.5t-81 28.5q-49 0 -80.5 -30.5t-39.5 -86.5h234zM285 598q-66 0 -107 40t-45 109h95q3 -25 17 -39.5t40 -14.5t41 14.5t20 39.5h93q-4 -69 -47 -109t-107 -40z" />
    <glyph glyph-name="Edotaccent" unicode="&#x116;" horiz-adv-x="595" 
d="M71 715h466v-126h-305v-167h244v-118h-244v-178h321v-126h-482v715zM311 768q-35 0 -58 22.5t-23 54.5t23 54.5t58 22.5q34 0 57 -22.5t23 -54.5t-23 -54.5t-57 -22.5z" />
    <glyph glyph-name="edotaccent" unicode="&#x117;" horiz-adv-x="587" 
d="M299 -11q-59 0 -109 18t-86 53q-37 34 -57.5 83t-20.5 112v8q0 62 20.5 112t57.5 86q36 35 85 54.5t106 19.5q51 0 97 -15.5t81 -47.5t56 -82.5t21 -120.5v-40h-377q3 -66 36.5 -101.5t93.5 -35.5q51 0 76.5 20t32.5 53h137q-13 -85 -77.5 -130.5t-172.5 -45.5zM409 318
q-4 60 -33 88.5t-81 28.5q-49 0 -80.5 -30.5t-39.5 -86.5h234zM293 598q-35 0 -58 22.5t-23 54.5t23 54.5t58 22.5q34 0 57 -22.5t23 -54.5t-23 -54.5t-57 -22.5z" />
    <glyph glyph-name="Eogonek" unicode="&#x118;" horiz-adv-x="595" 
d="M462 -182q-53 0 -84 21.5t-31 59.5q0 35 25.5 60t57.5 41h-353v715h466v-126h-305v-167h244v-118h-244v-178h321v-126h-34q-26 -19 -38.5 -35t-12.5 -34q0 -30 33 -30q23 0 38 7v-75q-14 -6 -34 -10.5t-49 -4.5z" />
    <glyph glyph-name="eogonek" unicode="&#x119;" horiz-adv-x="587" 
d="M399 -182q-51 0 -82 20.5t-31 58.5q0 32 24 55.5t53 40.5q-13 -2 -28.5 -3t-29.5 -1q-59 0 -109 18t-86.5 52.5t-57 83.5t-20.5 112v8q0 62 20.5 112t57 85.5t85.5 55t106 19.5q51 0 97 -15.5t81 -47.5t56 -82.5t21 -120.5v-40h-377q3 -66 36.5 -101.5t93.5 -35.5
q51 0 76.5 20t32.5 53h137q-4 -27 -13 -48t-20 -37.5t-23.5 -29l-22.5 -22.5q-31 -29 -50 -52.5t-19 -46.5q0 -16 9 -23.5t24 -7.5q23 0 38 7v-72q-13 -6 -31 -10.5t-48 -4.5zM415 318q-4 60 -33 88.5t-81 28.5q-49 0 -80.5 -30.5t-39.5 -86.5h234z" />
    <glyph glyph-name="Ecaron" unicode="&#x11a;" horiz-adv-x="595" 
d="M77 715h466v-126h-305v-167h244v-118h-244v-178h321v-126h-482v715zM147 902h104l69 -52l68 52h102l-112 -139h-123z" />
    <glyph glyph-name="ecaron" unicode="&#x11b;" horiz-adv-x="587" 
d="M299 -11q-59 0 -109 18t-86 53q-37 34 -57.5 83t-20.5 112v8q0 62 20.5 112t57.5 86q36 35 85 54.5t106 19.5q51 0 97 -15.5t81 -47.5t56 -82.5t21 -120.5v-40h-377q3 -66 36.5 -101.5t93.5 -35.5q51 0 76.5 20t32.5 53h137q-13 -85 -77.5 -130.5t-172.5 -45.5zM409 318
q-4 60 -33 88.5t-81 28.5q-49 0 -80.5 -30.5t-39.5 -86.5h234zM122 751h102l69 -63l69 63h100l-117 -156h-109z" />
    <glyph glyph-name="Gcircumflex" unicode="&#x11c;" horiz-adv-x="780" 
d="M398 -11q-88 0 -155.5 27t-113.5 76q-47 48 -71 114.5t-24 146.5v8q0 81 27 148t76 115q48 48 115 75t146 27q60 0 114.5 -14t97.5 -44q43 -31 71.5 -78.5t34.5 -113.5h-161q-11 63 -50.5 92.5t-104.5 29.5q-94 0 -145.5 -64.5t-51.5 -174.5v-8q0 -52 11.5 -95.5
t35.5 -74.5q24 -32 61.5 -49.5t90.5 -17.5q45 0 77 12t53 33q21 20 31 47.5t11 58.5h-161v118h321v-76q0 -72 -22.5 -130.5t-65.5 -99.5q-43 -42 -105.5 -65t-142.5 -23zM334 902h123l108 -139h-104l-68 53l-69 -53h-102z" />
    <glyph glyph-name="gcircumflex" unicode="&#x11d;" horiz-adv-x="636" 
d="M290 -193q-63 0 -110 13t-78 37q-32 24 -49.5 57.5t-22.5 74.5h144q7 -35 33.5 -55.5t82.5 -20.5q66 0 99 33t33 95v79q-11 -19 -27.5 -36.5t-38.5 -30.5q-22 -14 -47.5 -22t-54.5 -8q-48 0 -89.5 17.5t-71.5 49.5q-31 32 -49 78.5t-18 104.5v7q0 56 17.5 103t48.5 81
q31 33 73 52t91 19q64 0 103.5 -25t62.5 -65v78h144v-482q-1 -117 -73.5 -175.5t-202.5 -58.5zM297 132q57 0 93 38t36 105v7q0 67 -33 105t-93 38q-61 0 -93.5 -39.5t-32.5 -104.5v-8q0 -66 34.5 -103.5t88.5 -37.5zM242 751h109l114 -156h-102l-69 63l-70 -63h-99z" />
    <glyph glyph-name="Gbreve" unicode="&#x11e;" horiz-adv-x="780" 
d="M398 -11q-88 0 -155.5 27t-113.5 76q-47 48 -71 114.5t-24 146.5v8q0 81 27 148t76 115q48 48 115 75t146 27q60 0 114.5 -14t97.5 -44q43 -31 71.5 -78.5t34.5 -113.5h-161q-11 63 -50.5 92.5t-104.5 29.5q-94 0 -145.5 -64.5t-51.5 -174.5v-8q0 -52 11.5 -95.5
t35.5 -74.5q24 -32 61.5 -49.5t90.5 -17.5q45 0 77 12t53 33q21 20 31 47.5t11 58.5h-161v118h321v-76q0 -72 -22.5 -130.5t-65.5 -99.5q-43 -42 -105.5 -65t-142.5 -23zM393 757q-67 0 -108 40t-45 106h97q4 -24 17.5 -38t38.5 -14t39.5 14t19.5 38h96q-5 -66 -47 -106
t-108 -40z" />
    <glyph glyph-name="gbreve" unicode="&#x11f;" horiz-adv-x="636" 
d="M296 -193q-63 0 -110 13t-78 37q-32 24 -49.5 57.5t-22.5 74.5h144q7 -35 33.5 -55.5t82.5 -20.5q66 0 99 33t33 95v79q-11 -19 -27.5 -36.5t-38.5 -30.5q-22 -14 -47.5 -22t-54.5 -8q-48 0 -89.5 17.5t-71.5 49.5q-31 32 -49 78.5t-18 104.5v7q0 56 17.5 103t48.5 81
q31 33 73 52t91 19q64 0 103.5 -25t62.5 -65v78h144v-482q-1 -117 -73.5 -175.5t-202.5 -58.5zM303 132q57 0 93 38t36 105v7q0 67 -33 105t-93 38q-61 0 -93.5 -39.5t-32.5 -104.5v-8q0 -66 34.5 -103.5t88.5 -37.5zM300 598q-66 0 -107 40t-45 109h95q3 -25 17 -39.5
t40 -14.5t41 14.5t20 39.5h93q-4 -69 -47 -109t-107 -40z" />
    <glyph glyph-name="Gdotaccent" unicode="&#x120;" horiz-adv-x="780" 
d="M398 -11q-88 0 -155.5 27t-113.5 76q-47 48 -71 114.5t-24 146.5v8q0 81 27 148t76 115q48 48 115 75t146 27q60 0 114.5 -14t97.5 -44q43 -31 71.5 -78.5t34.5 -113.5h-161q-11 63 -50.5 92.5t-104.5 29.5q-94 0 -145.5 -64.5t-51.5 -174.5v-8q0 -52 11.5 -95.5
t35.5 -74.5q24 -32 61.5 -49.5t90.5 -17.5q45 0 77 12t53 33q21 20 31 47.5t11 58.5h-161v118h321v-76q0 -72 -22.5 -130.5t-65.5 -99.5q-43 -42 -105.5 -65t-142.5 -23zM394 768q-35 0 -58 22.5t-23 54.5t23 54.5t58 22.5q34 0 57 -22.5t23 -54.5t-23 -54.5t-57 -22.5z" />
    <glyph glyph-name="gdotaccent" unicode="&#x121;" horiz-adv-x="636" 
d="M296 -193q-63 0 -110 13t-78 37q-32 24 -49.5 57.5t-22.5 74.5h144q7 -35 33.5 -55.5t82.5 -20.5q66 0 99 33t33 95v79q-11 -19 -27.5 -36.5t-38.5 -30.5q-22 -14 -47.5 -22t-54.5 -8q-48 0 -89.5 17.5t-71.5 49.5q-31 32 -49 78.5t-18 104.5v7q0 56 17.5 103t48.5 81
q31 33 73 52t91 19q64 0 103.5 -25t62.5 -65v78h144v-482q-1 -117 -73.5 -175.5t-202.5 -58.5zM303 132q57 0 93 38t36 105v7q0 67 -33 105t-93 38q-61 0 -93.5 -39.5t-32.5 -104.5v-8q0 -66 34.5 -103.5t88.5 -37.5zM301 598q-35 0 -58 22.5t-23 54.5t23 54.5t58 22.5
q34 0 57 -22.5t23 -54.5t-23 -54.5t-57 -22.5z" />
    <glyph glyph-name="uni0122" unicode="&#x122;" horiz-adv-x="780" 
d="M404 -11q-88 0 -155.5 27t-113.5 76q-47 48 -71 114.5t-24 146.5v8q0 81 27 148t76 115q48 48 115 75t146 27q60 0 114.5 -14t97.5 -44q43 -31 71.5 -78.5t34.5 -113.5h-161q-11 63 -50.5 92.5t-104.5 29.5q-94 0 -145.5 -64.5t-51.5 -174.5v-8q0 -52 11.5 -95.5
t35.5 -74.5q24 -32 61.5 -49.5t90.5 -17.5q45 0 77 12t53 33q21 20 31 47.5t11 58.5h-161v118h321v-76q0 -72 -22.5 -130.5t-65.5 -99.5q-43 -42 -105.5 -65t-142.5 -23zM302 -201l47 170l130 -21l-95 -176z" />
    <glyph glyph-name="uni0123" unicode="&#x123;" horiz-adv-x="636" 
d="M296 -193q-63 0 -110 13t-78 37q-32 24 -49.5 57.5t-22.5 74.5h144q7 -35 33.5 -55.5t82.5 -20.5q66 0 99 33t33 95v79q-11 -19 -27.5 -36.5t-38.5 -30.5q-22 -14 -47.5 -22t-54.5 -8q-48 0 -89.5 17.5t-71.5 49.5q-31 32 -49 78.5t-18 104.5v7q0 56 17.5 103t48.5 81
q31 33 73 52t91 19q64 0 103.5 -25t62.5 -65v78h144v-482q-1 -117 -73.5 -175.5t-202.5 -58.5zM303 132q57 0 93 38t36 105v7q0 67 -33 105t-93 38q-61 0 -93.5 -39.5t-32.5 -104.5v-8q0 -66 34.5 -103.5t88.5 -37.5zM244 600l95 175l82 -26l-47 -170z" />
    <glyph glyph-name="Hcircumflex" unicode="&#x124;" horiz-adv-x="764" 
d="M71 715h162v-292h287v292h162v-715h-162v295h-287v-295h-162v715zM316 902h123l108 -139h-104l-68 53l-69 -53h-102z" />
    <glyph glyph-name="hcircumflex" unicode="&#x125;" horiz-adv-x="615" 
d="M58 760h145v-320q20 39 62 67t108 28q39 0 71 -12t56 -36q23 -25 36 -63.5t13 -90.5v-333h-145v312q0 54 -22 79.5t-70 25.5q-47 0 -78 -28.5t-31 -86.5v-302h-145v760zM249 937h123l108 -139h-104l-68 53l-69 -53h-102z" />
    <glyph glyph-name="Hbar" unicode="&#x126;" horiz-adv-x="764" 
d="M13 596h64v119h162v-119h287v119h162v-119h64v-85h-64v-511h-162v295h-287v-295h-162v511h-64v85zM526 423v88h-287v-88h287z" />
    <glyph glyph-name="hbar" unicode="&#x127;" horiz-adv-x="615" 
d="M1 680h63v80h145v-80h163v-83h-163v-157q20 39 62 67t108 28q39 0 71 -12t55.5 -36.5t36.5 -63t13 -90.5v-333h-145v312q0 54 -22 79.5t-70 25.5q-47 0 -78 -28.5t-31 -86.5v-302h-145v597h-63v83z" />
    <glyph glyph-name="Itilde" unicode="&#x128;" horiz-adv-x="325" 
d="M81 715h163v-715h-163v715zM225 764q-20 0 -36 6t-30 13q-14 6 -26 12t-23 6q-14 0 -23 -10.5t-12 -26.5h-86q5 69 37 104.5t77 35.5q18 0 34 -6t31 -13q14 -7 26.5 -13t24.5 -6q14 0 22.5 10.5t11.5 26.5h87q-6 -69 -39 -104t-76 -35z" />
    <glyph glyph-name="itilde" unicode="&#x129;" horiz-adv-x="281" 
d="M62 523h144v-523h-144v523zM195 598q-19 0 -35 6t-29 13l-26 13q-12 6 -23 6q-13 0 -22.5 -10.5t-12.5 -26.5h-83q5 69 35 105t75 36q18 0 34 -6t30 -12q14 -7 26.5 -13t24.5 -6q14 0 22.5 10t11.5 27h84q-6 -70 -37.5 -106t-74.5 -36z" />
    <glyph glyph-name="Imacron" unicode="&#x12a;" horiz-adv-x="325" 
d="M81 715h163v-715h-163v715zM11 868h302v-91h-302v91z" />
    <glyph glyph-name="imacron" unicode="&#x12b;" horiz-adv-x="281" 
d="M27 712h226v-87h-226v87zM68 523h144v-523h-144v523z" />
    <glyph glyph-name="Ibreve" unicode="&#x12c;" horiz-adv-x="325" 
d="M75 715h163v-715h-163v715zM157 757q-67 0 -108 40t-45 106h97q4 -24 17.5 -38t38.5 -14t39.5 14t19.5 38h96q-5 -66 -47 -106t-108 -40z" />
    <glyph glyph-name="ibreve" unicode="&#x12d;" horiz-adv-x="281" 
d="M68 523h144v-523h-144v523zM140 598q-66 0 -107 40t-45 109h95q3 -25 17 -39.5t40 -14.5t41 14.5t20 39.5h93q-4 -69 -47 -109t-107 -40z" />
    <glyph glyph-name="Iogonek" unicode="&#x12e;" horiz-adv-x="325" 
d="M170 -182q-54 0 -85 21.5t-31 59.5q0 35 25.5 60t57.5 41h-56v715h163v-706q-63 -41 -63 -78q0 -30 33 -30q23 0 38 7v-75q-14 -6 -33.5 -10.5t-48.5 -4.5z" />
    <glyph glyph-name="iogonek" unicode="&#x12f;" horiz-adv-x="281" 
d="M142 -182q-51 0 -81.5 21.5t-30.5 59.5q0 35 25.5 60t57.5 41h-45v523h144v-516q-33 -23 -47 -41t-14 -37q0 -31 34 -31q10 0 19.5 1.5t17.5 5.5v-72q-13 -6 -31.5 -10.5t-48.5 -4.5zM139 594q-35 0 -58.5 22.5t-23.5 56.5t23.5 56.5t58.5 22.5t59 -22.5t24 -56.5
t-24 -56.5t-59 -22.5z" />
    <glyph glyph-name="Idotaccent" unicode="&#x130;" horiz-adv-x="325" 
d="M75 715h163v-715h-163v715zM157 768q-35 0 -58 22.5t-23 54.5t23 54.5t58 22.5q34 0 57 -22.5t23 -54.5t-23 -54.5t-57 -22.5z" />
    <glyph glyph-name="dotlessi" unicode="&#x131;" horiz-adv-x="281" 
d="M68 523h144v-523h-144v523z" />
    <glyph glyph-name="IJ" unicode="&#x132;" horiz-adv-x="756" 
d="M81 715h163v-715h-163v715zM447 -9q-47 0 -73.5 6t-45.5 16v124q18 -7 38 -12t52 -5q46 0 73.5 25.5t27.5 87.5v482h163v-484q0 -122 -62 -181t-173 -59z" />
    <glyph glyph-name="ij" unicode="&#x133;" horiz-adv-x="555" 
d="M133 594q-35 0 -58.5 22.5t-23.5 56.5t23.5 56.5t58.5 22.5t59 -22.5t24 -56.5t-24 -56.5t-59 -22.5zM62 523h144v-523h-144v523zM273 -79q38 3 53.5 20t15.5 49v533h144v-532q0 -41 -10.5 -73.5t-34.5 -55.5q-25 -23 -66 -35.5t-102 -13.5v108zM413 594
q-35 0 -58.5 22.5t-23.5 56.5t23.5 56.5t58.5 22.5t59 -22.5t24 -56.5t-24 -56.5t-59 -22.5z" />
    <glyph glyph-name="Jcircumflex" unicode="&#x134;" horiz-adv-x="457" 
d="M148 -9q-47 0 -73.5 6t-45.5 16v124q18 -7 38 -12t52 -5q46 0 73.5 25.5t27.5 87.5v482h163v-484q0 -122 -62 -181t-173 -59zM239 902h123l108 -139h-104l-68 53l-69 -53h-102z" />
    <glyph glyph-name="jcircumflex" unicode="&#x135;" horiz-adv-x="281" 
d="M-1 -79q38 3 53.5 20t15.5 49v533h144v-532q0 -41 -10.5 -73.5t-35 -55.5t-65.5 -35.5t-102 -13.5v108zM87 751h109l114 -156h-102l-69 63l-70 -63h-99z" />
    <glyph glyph-name="uni0136" unicode="&#x136;" horiz-adv-x="686" 
d="M77 715h162v-308l250 308h172l-283 -338l297 -377h-189l-247 321v-321h-162v715zM256 -201l47 170l130 -21l-95 -176z" />
    <glyph glyph-name="uni0137" unicode="&#x137;" horiz-adv-x="555" 
d="M64 760h145v-458l168 221h154l-190 -238l205 -285h-164l-173 247v-247h-145v760zM192 -201l47 170l130 -21l-95 -176z" />
    <glyph glyph-name="Lacute" unicode="&#x139;" horiz-adv-x="560" 
d="M71 715h162v-588h291v-127h-453v715zM146 902h157l-101 -139h-109z" />
    <glyph glyph-name="lacute" unicode="&#x13a;" horiz-adv-x="280" 
d="M62 760h144v-760h-144v760zM128 937h157l-101 -139h-109z" />
    <glyph glyph-name="uni013B" unicode="&#x13b;" horiz-adv-x="560" 
d="M77 715h162v-588h291v-127h-453v715zM204 -201l47 170l130 -21l-95 -176z" />
    <glyph glyph-name="uni013C" unicode="&#x13c;" horiz-adv-x="280" 
d="M68 760h144v-760h-144v760zM43 -201l47 170l130 -21l-95 -176z" />
    <glyph glyph-name="Lcaron" unicode="&#x13d;" horiz-adv-x="560" 
d="M344 715h128l-60 -169h-87zM77 715h162v-588h291v-127h-453v715z" />
    <glyph glyph-name="lcaron" unicode="&#x13e;" horiz-adv-x="280" 
d="M68 760h144v-760h-144v760zM263 760h119l-49 -174h-80z" />
    <glyph glyph-name="Ldot" unicode="&#x13f;" horiz-adv-x="570" 
d="M71 715h162v-588h291v-127h-453v715z" />
    <glyph glyph-name="ldot" unicode="&#x140;" horiz-adv-x="189" 
d="M68 760h144v-760h-144v760z" />
    <glyph glyph-name="Lslash" unicode="&#x141;" horiz-adv-x="579" 
d="M31 330l65 23v362h162v-305l187 67v-94l-187 -66v-190h291v-127h-453v260l-65 -23v93z" />
    <glyph glyph-name="lslash" unicode="&#x142;" horiz-adv-x="313" 
d="M18 378l66 33v349h144v-275l70 36v-99l-70 -36v-386h-144v312l-66 -33v99z" />
    <glyph glyph-name="Nacute" unicode="&#x143;" horiz-adv-x="758" 
d="M77 715h188l272 -471v471h144v-715h-162l-298 509v-509h-144v715zM385 902h157l-101 -139h-109z" />
    <glyph glyph-name="nacute" unicode="&#x144;" horiz-adv-x="615" 
d="M64 523h145v-83q20 39 62 67t108 28q39 0 71 -12t56 -36q23 -25 36 -63.5t13 -90.5v-333h-145v312q0 54 -22 79.5t-70 25.5q-47 0 -78 -28.5t-31 -86.5v-302h-145v523zM306 753h152l-104 -159h-105z" />
    <glyph glyph-name="uni0145" unicode="&#x145;" horiz-adv-x="758" 
d="M77 715h188l272 -471v471h144v-715h-162l-298 509v-509h-144v715zM274 -201l47 170l130 -21l-95 -176z" />
    <glyph glyph-name="uni0146" unicode="&#x146;" horiz-adv-x="615" 
d="M64 523h145v-83q20 39 62 67t108 28q39 0 71 -12t56 -36q23 -25 36 -63.5t13 -90.5v-333h-145v312q0 54 -22 79.5t-70 25.5q-47 0 -78 -28.5t-31 -86.5v-302h-145v523zM209 -201l47 170l130 -21l-95 -176z" />
    <glyph glyph-name="Ncaron" unicode="&#x147;" horiz-adv-x="758" 
d="M71 715h188l272 -471v471h144v-715h-162l-298 509v-509h-144v715zM216 902h104l69 -52l68 52h102l-112 -139h-123z" />
    <glyph glyph-name="ncaron" unicode="&#x148;" horiz-adv-x="615" 
d="M64 523h145v-83q20 39 62 67t108 28q39 0 71 -12t56 -36q23 -25 36 -63.5t13 -90.5v-333h-145v312q0 54 -22 79.5t-70 25.5q-47 0 -78 -28.5t-31 -86.5v-302h-145v523zM137 751h102l69 -63l69 63h100l-117 -156h-109z" />
    <glyph glyph-name="napostrophe" unicode="&#x149;" horiz-adv-x="515" 
d="M-42 523h145v-83q20 39 62 67t108 28q39 0 71 -12t56 -36q23 -25 36 -63.5t13 -90.5v-333h-145v312q0 54 -22 79.5t-70 25.5q-47 0 -78 -28.5t-31 -86.5v-302h-145v523z" />
    <glyph glyph-name="Eng" unicode="&#x14a;" horiz-adv-x="758" 
d="M456 -193q-45 0 -70.5 6.5t-44.5 15.5v119q18 -7 36.5 -12t47.5 -5q40 0 65 19t30 60l-296 509v-519h-147v715h190l267 -469v469h147v-697q0 -101 -59.5 -156t-165.5 -55z" />
    <glyph glyph-name="eng" unicode="&#x14b;" horiz-adv-x="615" 
d="M342 -79q38 3 53 20t15 49v322q0 54 -22 79.5t-70 25.5q-47 0 -78 -28.5t-31 -86.5v-302h-145v523h145v-83q20 39 62 67t108 28q39 0 71 -12t55.5 -36.5t36.5 -63t13 -90.5v-342q0 -41 -10.5 -73.5t-35 -55.5t-65.5 -35.5t-102 -13.5v108z" />
    <glyph glyph-name="Omacron" unicode="&#x14c;" horiz-adv-x="816" 
d="M410 118q45 0 81.5 17t62.5 48q25 30 39 74t14 98v8q0 52 -13.5 95t-38.5 74q-26 31 -63 48t-84 17t-83.5 -16.5t-62.5 -46.5q-26 -31 -39.5 -74.5t-13.5 -97.5v-8q0 -55 15 -98.5t42 -73.5q26 -31 63 -47.5t81 -16.5zM407 -11q-84 0 -152 27.5t-115 76.5q-48 48 -74 115
t-26 145v8q0 80 27.5 147t77.5 115q49 48 116 75t147 27q81 0 148.5 -26t116.5 -73q48 -48 75.5 -114t27.5 -147v-8q0 -80 -26.5 -147.5t-74.5 -116.5t-116 -76.5t-152 -27.5zM256 868h302v-91h-302v91z" />
    <glyph glyph-name="omacron" unicode="&#x14d;" horiz-adv-x="616" 
d="M302 99q61 0 94.5 42t33.5 117v7q0 75 -33.5 117.5t-94.5 42.5q-60 0 -94 -41.5t-34 -116.5v-8q0 -75 33 -117.5t95 -42.5zM301 -11q-59 0 -109 19t-87 54q-37 34 -58 83.5t-21 110.5v8q0 61 21 111.5t58 85.5t87.5 54.5t109.5 19.5t109.5 -19t87.5 -54q36 -35 57 -84.5
t21 -110.5v-8q0 -62 -21 -112t-58 -85t-87.5 -54t-109.5 -19zM155 712h291v-87h-291v87z" />
    <glyph glyph-name="Obreve" unicode="&#x14e;" horiz-adv-x="816" 
d="M404 118q45 0 81.5 17t62.5 48q25 30 39 74t14 98v8q0 52 -13.5 95t-38.5 74q-26 31 -63 48t-84 17t-83.5 -16.5t-62.5 -46.5q-26 -31 -39.5 -74.5t-13.5 -97.5v-8q0 -55 15 -98.5t42 -73.5q26 -31 63 -47.5t81 -16.5zM401 -11q-84 0 -152 27.5t-115 76.5q-48 48 -74 115
t-26 145v8q0 80 27.5 147t77.5 115q49 48 116 75t147 27q81 0 148.5 -26t116.5 -73q48 -48 75.5 -114t27.5 -147v-8q0 -80 -26.5 -147.5t-74.5 -116.5t-116 -76.5t-152 -27.5zM400 757q-67 0 -108 40t-45 106h97q4 -24 17.5 -38t38.5 -14t39.5 14t19.5 38h96
q-5 -66 -47 -106t-108 -40z" />
    <glyph glyph-name="obreve" unicode="&#x14f;" horiz-adv-x="616" 
d="M302 99q61 0 94.5 42t33.5 117v7q0 75 -33.5 117.5t-94.5 42.5q-60 0 -94 -41.5t-34 -116.5v-8q0 -75 33 -117.5t95 -42.5zM301 -11q-59 0 -109 19t-87 54q-37 34 -58 83.5t-21 110.5v8q0 61 21 111.5t58 85.5t87.5 54.5t109.5 19.5t109.5 -19t87.5 -54q36 -35 57 -84.5
t21 -110.5v-8q0 -62 -21 -112t-58 -85t-87.5 -54t-109.5 -19zM300 598q-66 0 -107 40t-45 109h95q3 -25 17 -39.5t40 -14.5t41 14.5t20 39.5h93q-4 -69 -47 -109t-107 -40z" />
    <glyph glyph-name="Ohungarumlaut" unicode="&#x150;" horiz-adv-x="816" 
d="M410 118q45 0 81.5 17t62.5 48q25 30 39 74t14 98v8q0 52 -13.5 95t-38.5 74q-26 31 -63 48t-84 17t-83.5 -16.5t-62.5 -46.5q-26 -31 -39.5 -74.5t-13.5 -97.5v-8q0 -55 15 -98.5t42 -73.5q26 -31 63 -47.5t81 -16.5zM407 -11q-84 0 -152 27.5t-115 76.5q-48 48 -74 115
t-26 145v8q0 80 27.5 147t77.5 115q49 48 116 75t147 27q81 0 148.5 -26t116.5 -73q48 -48 75.5 -114t27.5 -147v-8q0 -80 -26.5 -147.5t-74.5 -116.5t-116 -76.5t-152 -27.5zM298 902h132l-73 -139h-98zM478 902h132l-74 -139h-97z" />
    <glyph glyph-name="ohungarumlaut" unicode="&#x151;" horiz-adv-x="616" 
d="M302 99q61 0 94.5 42t33.5 117v7q0 75 -33.5 117.5t-94.5 42.5q-60 0 -94 -41.5t-34 -116.5v-8q0 -75 33 -117.5t95 -42.5zM301 -11q-59 0 -109 19t-87 54q-37 34 -58 83.5t-21 110.5v8q0 61 21 111.5t58 85.5t87.5 54.5t109.5 19.5t109.5 -19t87.5 -54q36 -35 57 -84.5
t21 -110.5v-8q0 -62 -21 -112t-58 -85t-87.5 -54t-109.5 -19zM205 753h123l-76 -159h-89zM373 753h124l-76 -159h-90z" />
    <glyph glyph-name="OE" unicode="&#x152;" horiz-adv-x="970" 
d="M40 358q0 80 23.5 146t70.5 113t117.5 72.5t163.5 25.5h503v-126h-289v-167h228v-118h-228v-178h306v-126h-521q-93 0 -163.5 24.5t-116.5 70.5q-47 45 -70.5 110t-23.5 145v8zM420 589q-109 0 -160 -58.5t-51 -170.5v-8q0 -110 50 -168t163 -58h46v463h-48z" />
    <glyph glyph-name="oe" unicode="&#x153;" horiz-adv-x="989" 
d="M307 -11q-59 0 -109 19t-87 54q-37 34 -58 83.5t-21 110.5v8q0 61 21 111.5t58 85.5t87.5 54.5t109.5 19.5q65 0 116 -24t84 -68q33 44 82.5 68t112.5 24q51 0 97 -15.5t81 -47.5t56 -82.5t21 -120.5v-40h-378q4 -66 37.5 -101.5t93.5 -35.5q51 0 76.5 20t31.5 53h137
q-12 -85 -76.5 -130.5t-172.5 -45.5q-66 0 -117 23t-84 67q-34 -44 -84.5 -67t-114.5 -23zM308 99q61 0 94.5 42t33.5 117v7q0 75 -33.5 117.5t-94.5 42.5q-60 0 -94 -41.5t-34 -116.5v-8q0 -76 33 -118t95 -42zM816 318q-4 60 -33 88.5t-80 28.5q-49 0 -80.5 -30.5
t-39.5 -86.5h233z" />
    <glyph glyph-name="Racute" unicode="&#x154;" horiz-adv-x="672" 
d="M77 715h256q63 0 114 -13t87 -40t55.5 -68t19.5 -96v-4q0 -41 -11 -72t-31 -54t-47 -39t-58 -25l189 -304h-172l-171 276h-70v-276h-161v715zM329 386q61 0 91.5 26t30.5 77v4q0 55 -31.5 76.5t-90.5 21.5h-91v-205h91zM318 902h157l-101 -139h-109z" />
    <glyph glyph-name="racute" unicode="&#x155;" horiz-adv-x="411" 
d="M64 523h145v-100q25 53 65 80t104 28v-135q-81 1 -125 -29t-44 -105v-262h-145v523zM222 753h152l-104 -159h-105z" />
    <glyph glyph-name="uni0156" unicode="&#x156;" horiz-adv-x="672" 
d="M77 715h256q63 0 114 -13t87 -40t55.5 -68t19.5 -96v-4q0 -41 -11 -72t-31 -54t-47 -39t-58 -25l189 -304h-172l-171 276h-70v-276h-161v715zM329 386q61 0 91.5 26t30.5 77v4q0 55 -31.5 76.5t-90.5 21.5h-91v-205h91zM248 -201l47 170l130 -21l-95 -176z" />
    <glyph glyph-name="uni0157" unicode="&#x157;" horiz-adv-x="409" 
d="M64 523h145v-100q25 53 65 80t104 28v-135q-81 1 -125 -29t-44 -105v-262h-145v523zM40 -201l47 170l130 -21l-95 -176z" />
    <glyph glyph-name="Rcaron" unicode="&#x158;" horiz-adv-x="672" 
d="M71 715h256q63 0 114 -13t87 -40t55.5 -68t19.5 -96v-4q0 -41 -11 -72t-31 -54t-47 -39t-58 -25l189 -304h-172l-171 276h-70v-276h-161v715zM323 386q61 0 91.5 26t30.5 77v4q0 55 -31.5 76.5t-90.5 21.5h-91v-205h91zM149 902h104l69 -52l68 52h102l-112 -139h-123z
" />
    <glyph glyph-name="rcaron" unicode="&#x159;" horiz-adv-x="409" 
d="M58 523h145v-100q25 53 65 80t104 28v-135q-81 1 -125 -29t-44 -105v-262h-145v523zM47 751h102l69 -63l69 63h100l-117 -156h-109z" />
    <glyph glyph-name="Sacute" unicode="&#x15a;" horiz-adv-x="640" 
d="M321 -11q-74 0 -128 16.5t-90 47.5t-55 74t-22 97h155q3 -24 10 -45.5t23 -36.5q16 -16 41.5 -25.5t65.5 -9.5q54 0 86 26.5t32 68.5q0 21 -6.5 36t-21.5 26q-16 10 -42 17.5t-65 13.5q-69 9 -117.5 24.5t-79.5 41.5q-32 25 -46.5 62t-14.5 89q0 46 18.5 85t52.5 68
q34 28 82 44t107 16q121 0 189.5 -53.5t78.5 -160.5h-149q-7 48 -37 71.5t-82 23.5q-54 0 -80.5 -22.5t-26.5 -58.5q0 -19 5.5 -33.5t20.5 -24.5q14 -11 40 -19t67 -14q65 -8 114 -22.5t82 -38.5q33 -25 49.5 -63t16.5 -93q0 -48 -19 -89.5t-54 -71.5q-35 -31 -86 -49
t-114 -18zM299 902h157l-101 -139h-109z" />
    <glyph glyph-name="sacute" unicode="&#x15b;" horiz-adv-x="502" 
d="M248 -11q-106 0 -165 45t-63 130h135q5 -35 24.5 -54.5t67.5 -19.5q42 0 62 15t20 42t-24.5 40.5t-81.5 21.5q-52 8 -88.5 20t-59.5 31q-24 19 -34.5 46.5t-10.5 65.5q0 41 17.5 71.5t46.5 51.5q28 20 65.5 30t77.5 10q43 0 80.5 -8.5t66.5 -27.5q28 -19 46 -50t23 -76
h-133q-6 32 -25 47.5t-57 15.5q-35 0 -54.5 -15t-19.5 -39q0 -25 22 -37t79 -20q49 -7 87 -18t64 -29q25 -19 38.5 -47t13.5 -70q0 -85 -58 -128.5t-162 -43.5zM242 753h152l-104 -159h-105z" />
    <glyph glyph-name="Scircumflex" unicode="&#x15c;" horiz-adv-x="640" 
d="M327 -11q-74 0 -128 16.5t-90 47.5t-55 74t-22 97h155q3 -24 10 -45.5t23 -36.5q16 -16 41.5 -25.5t65.5 -9.5q54 0 86 26.5t32 68.5q0 21 -6.5 36t-21.5 26q-16 10 -42 17.5t-65 13.5q-69 9 -117.5 24.5t-79.5 41.5q-32 25 -46.5 62t-14.5 89q0 46 18.5 85t52.5 68
q34 28 82 44t107 16q121 0 189.5 -53.5t78.5 -160.5h-149q-7 48 -37 71.5t-82 23.5q-54 0 -80.5 -22.5t-26.5 -58.5q0 -19 5.5 -33.5t20.5 -24.5q14 -11 40 -19t67 -14q65 -8 114 -22.5t82 -38.5q33 -25 49.5 -63t16.5 -93q0 -48 -19 -89.5t-54 -71.5q-35 -31 -86 -49
t-114 -18zM254 902h123l108 -139h-104l-68 53l-69 -53h-102z" />
    <glyph glyph-name="scircumflex" unicode="&#x15d;" horiz-adv-x="502" 
d="M254 -11q-106 0 -165 45t-63 130h135q5 -35 24.5 -54.5t67.5 -19.5q42 0 62 15t20 42t-24.5 40.5t-81.5 21.5q-52 8 -88.5 20t-59.5 31q-24 19 -34.5 46.5t-10.5 65.5q0 41 17.5 71.5t46.5 51.5q28 20 65.5 30t77.5 10q43 0 80.5 -8.5t66.5 -27.5q28 -19 46 -50t23 -76
h-133q-6 32 -25 47.5t-57 15.5q-35 0 -54.5 -15t-19.5 -39q0 -25 22 -37t79 -20q49 -7 87 -18t64 -29q25 -19 38.5 -47t13.5 -70q0 -85 -58 -128.5t-162 -43.5zM195 751h109l114 -156h-102l-69 63l-70 -63h-99z" />
    <glyph glyph-name="uni015E" unicode="&#x15e;" horiz-adv-x="640" 
d="M299 -222q-51 0 -81.5 24t-35.5 66h74q2 -12 11.5 -21.5t26.5 -9.5t26 9.5t9 23.5t-9 22.5t-25 8.5q-11 0 -18.5 -3t-12.5 -7l-36 35l40 66q-116 13 -173 74.5t-63 157.5h155q3 -24 10 -45.5t23 -37t41.5 -25t65.5 -9.5q54 0 86 26.5t32 68.5q0 21 -6.5 36t-22 25.5
t-41.5 18t-65 13.5q-69 9 -117.5 24.5t-80 41t-46 62.5t-14.5 89q0 46 18.5 85t52.5 67.5t82 44.5t107 16q121 0 189.5 -53.5t78.5 -160.5h-149q-15 95 -119 95q-54 0 -80.5 -22.5t-26.5 -58.5q0 -19 5.5 -33.5t20 -25t40.5 -18.5t67 -14q65 -8 114 -22.5t82 -39t49.5 -62.5
t16.5 -93q0 -47 -18.5 -88.5t-53.5 -72t-84.5 -48.5t-112.5 -19l-22 -37q20 2 38.5 -2t33 -14.5t23.5 -27t9 -40.5q0 -44 -32 -67t-82 -23z" />
    <glyph glyph-name="uni015F" unicode="&#x15f;" horiz-adv-x="502" 
d="M235 -222q-51 0 -81.5 24t-35.5 66h74q2 -12 11.5 -21.5t26.5 -9.5t26 9.5t9 23.5t-9 22.5t-25 8.5q-11 0 -18.5 -3t-12.5 -7l-36 35l40 66q-83 10 -129 53.5t-49 118.5h135q5 -35 24.5 -54.5t67.5 -19.5q42 0 62 15t20 42t-24.5 40.5t-81.5 21.5q-52 8 -88.5 20t-60 31
t-34 46.5t-10.5 65.5q0 41 17.5 71.5t46 51t66 30.5t77.5 10q43 0 80.5 -8.5t66 -27.5t46.5 -50t23 -76h-133q-6 32 -25 47.5t-57 15.5q-35 0 -54.5 -15t-19.5 -39q0 -25 22 -37t79 -20q49 -7 87 -18t63.5 -29.5t39 -46.5t13.5 -70q0 -82 -54.5 -125.5t-152.5 -46.5l-22 -37
q20 2 38.5 -2t33 -14.5t23.5 -27t9 -40.5q0 -44 -32 -67t-82 -23z" />
    <glyph glyph-name="Scaron" unicode="&#x160;" horiz-adv-x="640" 
d="M321 -11q-74 0 -128 16.5t-90 47.5t-55 74t-22 97h155q3 -24 10 -45.5t23 -36.5q16 -16 41.5 -25.5t65.5 -9.5q54 0 86 26.5t32 68.5q0 21 -6.5 36t-21.5 26q-16 10 -42 17.5t-65 13.5q-69 9 -117.5 24.5t-79.5 41.5q-32 25 -46.5 62t-14.5 89q0 46 18.5 85t52.5 68
q34 28 82 44t107 16q121 0 189.5 -53.5t78.5 -160.5h-149q-7 48 -37 71.5t-82 23.5q-54 0 -80.5 -22.5t-26.5 -58.5q0 -19 5.5 -33.5t20.5 -24.5q14 -11 40 -19t67 -14q65 -8 114 -22.5t82 -38.5q33 -25 49.5 -63t16.5 -93q0 -48 -19 -89.5t-54 -71.5q-35 -31 -86 -49
t-114 -18zM136 902h104l69 -52l68 52h102l-112 -139h-123z" />
    <glyph glyph-name="scaron" unicode="&#x161;" horiz-adv-x="502" 
d="M70 751h102l69 -63l69 63h100l-117 -156h-109zM248 -11q-106 0 -165 45t-63 130h135q5 -35 24.5 -54.5t67.5 -19.5q42 0 62 15t20 42t-24.5 40.5t-81.5 21.5q-52 8 -88.5 20t-59.5 31q-24 19 -34.5 46.5t-10.5 65.5q0 41 17.5 71.5t46.5 51.5q28 20 65.5 30t77.5 10
q43 0 80.5 -8.5t66.5 -27.5q28 -19 46 -50t23 -76h-133q-6 32 -25 47.5t-57 15.5q-35 0 -54.5 -15t-19.5 -39q0 -25 22 -37t79 -20q49 -7 87 -18t64 -29q25 -19 38.5 -47t13.5 -70q0 -85 -58 -128.5t-162 -43.5z" />
    <glyph glyph-name="Tcommaaccent" unicode="&#x162;" horiz-adv-x="598" 
d="M211 589h-193v126h549v-126h-193v-589h-163v589zM194 -201l47 170l130 -21l-95 -176z" />
    <glyph glyph-name="tcommaaccent" unicode="&#x163;" horiz-adv-x="377" 
d="M249 -10q-83 0 -126 41.5t-43 123.5v265h-67v103h67v113h144v-113h110v-103h-110v-252q0 -31 14.5 -46.5t43.5 -15.5q16 0 29.5 2.5t25.5 7.5v-112q-15 -5 -37 -9.5t-51 -4.5zM99 -201l47 170l130 -21l-95 -176z" />
    <glyph glyph-name="Tcaron" unicode="&#x164;" horiz-adv-x="597" 
d="M211 589h-193v126h549v-126h-193v-589h-163v589zM120 902h104l69 -52l68 52h102l-112 -139h-123z" />
    <glyph glyph-name="tcaron" unicode="&#x165;" horiz-adv-x="371" 
d="M249 -10q-83 0 -126 41.5t-43 123.5v265h-67v103h67v113h144v-113h110v-103h-110v-252q0 -31 14.5 -46.5t43.5 -15.5q16 0 29.5 2.5t25.5 7.5v-112q-15 -5 -37 -9.5t-51 -4.5zM289 760h119l-49 -174h-80z" />
    <glyph glyph-name="Tbar" unicode="&#x166;" horiz-adv-x="597" 
d="M84 406h133v183h-193v126h549v-126h-193v-183h133v-106h-133v-300h-163v300h-133v106z" />
    <glyph glyph-name="tbar" unicode="&#x167;" horiz-adv-x="377" 
d="M19 335h67v85h-67v103h67v113h144v-113h110v-103h-110v-85h110v-85h-110v-82q0 -62 58 -62q31 0 55 9v-112q-16 -5 -37.5 -9t-51.5 -4q-82 0 -125 41.5t-43 123.5v95h-67v85z" />
    <glyph glyph-name="Utilde" unicode="&#x168;" horiz-adv-x="739" 
d="M360 -11q-142 0 -218.5 73.5t-76.5 216.5v436h163v-426q0 -90 29.5 -130.5t103.5 -40.5q72 0 105 39.5t33 137.5v420h163v-430q0 -147 -78 -221.5t-224 -74.5zM423 764q-20 0 -36 6t-30 13q-14 6 -26 12t-23 6q-14 0 -23 -10.5t-12 -26.5h-86q5 69 37 104.5t77 35.5
q18 0 34 -6t31 -13q14 -7 26.5 -13t24.5 -6q14 0 22.5 10.5t11.5 26.5h87q-6 -69 -39 -104t-76 -35z" />
    <glyph glyph-name="utilde" unicode="&#x169;" horiz-adv-x="612" 
d="M232 -11q-38 0 -70.5 11.5t-56.5 35.5t-37.5 61.5t-13.5 88.5v337h144v-317q0 -52 23 -78.5t68 -26.5q46 0 77.5 28.5t31.5 86.5v307h144v-523h-144v82q-20 -40 -60.5 -66.5t-105.5 -26.5zM359 598q-19 0 -35 6t-29 13l-26 13q-12 6 -23 6q-13 0 -22.5 -10.5t-12.5 -26.5
h-83q5 69 35 105t75 36q18 0 34 -6t30 -12q14 -7 26.5 -13t24.5 -6q14 0 22.5 10t11.5 27h84q-6 -70 -37.5 -106t-74.5 -36z" />
    <glyph glyph-name="Umacron" unicode="&#x16a;" horiz-adv-x="739" 
d="M366 -11q-142 0 -218.5 73.5t-76.5 216.5v436h163v-426q0 -90 29.5 -130.5t103.5 -40.5q72 0 105 39.5t33 137.5v420h163v-430q0 -147 -78 -221.5t-224 -74.5zM217 868h302v-91h-302v91z" />
    <glyph glyph-name="umacron" unicode="&#x16b;" horiz-adv-x="612" 
d="M232 -11q-38 0 -70.5 11.5t-56.5 35.5t-37.5 61.5t-13.5 88.5v337h144v-317q0 -52 23 -78.5t68 -26.5q46 0 77.5 28.5t31.5 86.5v307h144v-523h-144v82q-20 -40 -60.5 -66.5t-105.5 -26.5zM153 712h291v-87h-291v87z" />
    <glyph glyph-name="Ubreve" unicode="&#x16c;" horiz-adv-x="739" 
d="M360 -11q-142 0 -218.5 73.5t-76.5 216.5v436h163v-426q0 -90 29.5 -130.5t103.5 -40.5q72 0 105 39.5t33 137.5v420h163v-430q0 -147 -78 -221.5t-224 -74.5zM361 757q-67 0 -108 40t-45 106h97q4 -24 17.5 -38t38.5 -14t39.5 14t19.5 38h96q-5 -66 -47 -106t-108 -40z
" />
    <glyph glyph-name="ubreve" unicode="&#x16d;" horiz-adv-x="612" 
d="M232 -11q-38 0 -70.5 11.5t-56.5 35.5t-37.5 61.5t-13.5 88.5v337h144v-317q0 -52 23 -78.5t68 -26.5q46 0 77.5 28.5t31.5 86.5v307h144v-523h-144v82q-20 -40 -60.5 -66.5t-105.5 -26.5zM298 598q-66 0 -107 40t-45 109h95q3 -25 17 -39.5t40 -14.5t41 14.5t20 39.5h93
q-4 -69 -47 -109t-107 -40z" />
    <glyph glyph-name="Uring" unicode="&#x16e;" horiz-adv-x="739" 
d="M360 -11q-142 0 -218.5 73.5t-76.5 216.5v436h163v-426q0 -90 29.5 -130.5t103.5 -40.5q72 0 105 39.5t33 137.5v420h163v-430q0 -147 -78 -221.5t-224 -74.5zM362 788q21 0 35 15t14 38t-14 38.5t-35 15.5q-22 0 -35.5 -15.5t-13.5 -38.5t13.5 -38t35.5 -15zM362 730
q-24 0 -44.5 9t-36.5 24t-25 35t-9 43t9 43.5t25 35.5t36.5 24t44.5 9t44.5 -9t36.5 -24t25 -35.5t9 -43.5t-9 -43t-25 -35t-36.5 -24t-44.5 -9z" />
    <glyph glyph-name="uring" unicode="&#x16f;" horiz-adv-x="612" 
d="M232 -11q-38 0 -70.5 11.5t-56.5 35.5t-37.5 61.5t-13.5 88.5v337h144v-317q0 -52 23 -78.5t68 -26.5q46 0 77.5 28.5t31.5 86.5v307h144v-523h-144v82q-20 -40 -60.5 -66.5t-105.5 -26.5zM298 618q21 0 35 15t14 38t-14 38.5t-35 15.5q-22 0 -35.5 -15.5t-13.5 -38.5
t13.5 -38t35.5 -15zM298 560q-24 0 -44.5 9t-36.5 24t-25 35t-9 43t9 43.5t25 35.5t36.5 24t44.5 9t44.5 -9t36.5 -24t25 -35.5t9 -43.5t-9 -43t-25 -35t-36.5 -24t-44.5 -9z" />
    <glyph glyph-name="Uhungarumlaut" unicode="&#x170;" horiz-adv-x="739" 
d="M360 -11q-142 0 -218.5 73.5t-76.5 216.5v436h163v-426q0 -90 29.5 -130.5t103.5 -40.5q72 0 105 39.5t33 137.5v420h163v-430q0 -147 -78 -221.5t-224 -74.5zM253 902h132l-73 -139h-98zM433 902h132l-74 -139h-97z" />
    <glyph glyph-name="uhungarumlaut" unicode="&#x171;" horiz-adv-x="612" 
d="M232 -11q-38 0 -70.5 11.5t-56.5 35.5t-37.5 61.5t-13.5 88.5v337h144v-317q0 -52 23 -78.5t68 -26.5q46 0 77.5 28.5t31.5 86.5v307h144v-523h-144v82q-20 -40 -60.5 -66.5t-105.5 -26.5zM203 753h123l-76 -159h-89zM371 753h124l-76 -159h-90z" />
    <glyph glyph-name="Uogonek" unicode="&#x172;" horiz-adv-x="739" 
d="M407 -182q-52 0 -83 21t-31 59q0 29 18.5 52t44.5 39q-137 2 -211 75.5t-74 214.5v436h163v-426q0 -90 29.5 -130.5t103.5 -40.5q72 0 105 39.5t33 137.5v420h163v-430q0 -103 -38.5 -169t-108.5 -98q-21 -10 -39.5 -19t-32.5 -18.5t-22 -21.5t-8 -28q0 -15 9 -22.5
t24 -7.5q23 0 38 7v-75q-13 -6 -33.5 -10.5t-49.5 -4.5z" />
    <glyph glyph-name="uogonek" unicode="&#x173;" horiz-adv-x="612" 
d="M476 -182q-51 0 -81.5 21.5t-30.5 59.5q0 35 25.5 60t57.5 41h-43v82q-20 -40 -60.5 -66.5t-105.5 -26.5q-38 0 -70.5 11.5t-56.5 35.5t-37.5 61.5t-13.5 88.5v337h144v-317q0 -105 91 -105q46 0 77.5 28.5t31.5 86.5v307h144v-514q-34 -24 -48.5 -42.5t-14.5 -37.5
q0 -31 34 -31q10 0 19.5 1.5t17.5 5.5v-72q-13 -6 -32 -10.5t-48 -4.5z" />
    <glyph glyph-name="Wcircumflex" unicode="&#x174;" horiz-adv-x="971" 
d="M21 715h164l112 -494l122 494h138l127 -497l116 497h150l-174 -715h-165l-129 494l-131 -494h-156zM426 902h123l108 -139h-104l-68 53l-69 -53h-102z" />
    <glyph glyph-name="wcircumflex" unicode="&#x175;" horiz-adv-x="826" 
d="M16 523h152l93 -352l101 352h119l92 -352l99 352h139l-165 -523h-142l-89 328l-96 -328h-144zM359 751h109l114 -156h-102l-69 63l-70 -63h-99z" />
    <glyph glyph-name="Ycircumflex" unicode="&#x176;" horiz-adv-x="648" 
d="M243 308l-236 407h178l145 -274l142 274h157l-223 -407v-308h-163v308zM262 902h123l108 -139h-104l-68 53l-69 -53h-102z" />
    <glyph glyph-name="ycircumflex" unicode="&#x177;" horiz-adv-x="567" 
d="M216 53l-208 470h156l127 -314l117 314h139l-283 -701h-140zM229 751h109l114 -156h-102l-69 63l-70 -63h-99z" />
    <glyph glyph-name="Ydieresis" unicode="&#x178;" horiz-adv-x="648" 
d="M214 769q-31 0 -52.5 21.5t-21.5 51.5t21.5 51t52.5 21q30 0 52 -21t22 -51t-22 -51.5t-52 -21.5zM429 769q-30 0 -51.5 21.5t-21.5 51.5t21.5 51t51.5 21q31 0 52.5 -21t21.5 -51t-21.5 -51.5t-52.5 -21.5zM243 308l-236 407h178l145 -274l142 274h157l-223 -407v-308
h-163v308z" />
    <glyph glyph-name="Zacute" unicode="&#x179;" horiz-adv-x="615" 
d="M12 20l341 569h-303v126h532v-19l-334 -569h322v-127h-558v20zM296 902h157l-101 -139h-109z" />
    <glyph glyph-name="zacute" unicode="&#x17a;" horiz-adv-x="499" 
d="M8 16l258 395h-232v112h442v-18l-260 -393h250v-112h-458v16zM248 753h152l-104 -159h-105z" />
    <glyph glyph-name="Zdotaccent" unicode="&#x17b;" horiz-adv-x="615" 
d="M18 20l341 569h-303v126h532v-19l-334 -569h322v-127h-558v20zM312 768q-35 0 -58 22.5t-23 54.5t23 54.5t58 22.5q34 0 57 -22.5t23 -54.5t-23 -54.5t-57 -22.5z" />
    <glyph glyph-name="zdotaccent" unicode="&#x17c;" horiz-adv-x="499" 
d="M8 16l258 395h-232v112h442v-18l-260 -393h250v-112h-458v16zM250 598q-35 0 -58 22.5t-23 54.5t23 54.5t58 22.5q34 0 57 -22.5t23 -54.5t-23 -54.5t-57 -22.5z" />
    <glyph glyph-name="Zcaron" unicode="&#x17d;" horiz-adv-x="615" 
d="M12 20l341 569h-303v126h532v-19l-334 -569h322v-127h-558v20zM133 902h104l69 -52l68 52h102l-112 -139h-123z" />
    <glyph glyph-name="zcaron" unicode="&#x17e;" horiz-adv-x="499" 
d="M79 751h102l69 -63l69 63h100l-117 -156h-109zM8 16l258 395h-232v112h442v-18l-260 -393h250v-112h-458v16z" />
    <glyph glyph-name="uni0192" unicode="&#x192;" horiz-adv-x="441" 
d="M31 414h93l20 134q13 93 65 134.5t136 41.5q24 0 41 -2.5t34 -8.5v-110q-11 4 -24.5 6.5t-32.5 2.5q-35 0 -53.5 -20t-23.5 -55l-18 -123h120v-102h-135l-72 -494h-144l72 494h-78v102z" />
    <glyph glyph-name="Aringacute" unicode="&#x1fa;" horiz-adv-x="720" 
d="M256 715h211l232 -715h-169l-49 159h-259l-49 -159h-152zM257 274h189l-94 309zM364 803q21 0 35 15t14 38t-14 38.5t-35 15.5q-22 0 -35.5 -15.5t-13.5 -38.5t13.5 -38t35.5 -15zM364 745q-24 0 -44.5 9t-36.5 24t-25 35t-9 43t9 43.5t25 35.5t36.5 24t44.5 9t44.5 -9
t36.5 -24t25 -35.5t9 -43.5t-9 -43t-25 -35t-36.5 -24t-44.5 -9zM361 1128h157l-101 -139h-109z" />
    <glyph glyph-name="aringacute" unicode="&#x1fb;" horiz-adv-x="564" 
d="M205 -11q-36 0 -67.5 9t-55.5 28t-38 48.5t-14 70.5q0 46 20 78t56 52t86 29t110 9h59v21q0 47 -17.5 71.5t-67.5 24.5q-43 0 -63.5 -20t-25.5 -54h-137q3 46 22.5 80t50.5 56t72.5 32.5t89.5 10.5t88 -10.5t70 -33.5q29 -23 45 -60t16 -90v-341h-141v63
q-23 -32 -59.5 -53t-98.5 -21zM248 90q48 0 80.5 24.5t32.5 68.5v44h-56q-63 0 -98 -16t-35 -58q0 -29 18 -46t58 -17zM286 632q21 0 35 15t14 38t-14 38.5t-35 15.5q-22 0 -35.5 -15.5t-13.5 -38.5t13.5 -38t35.5 -15zM286 574q-24 0 -44.5 9t-36.5 24t-25 35t-9 43t9 43.5
t25 35.5t36.5 24t44.5 9t44.5 -9t36.5 -24t25 -35.5t9 -43.5t-9 -43t-25 -35t-36.5 -24t-44.5 -9zM288 967h157l-101 -139h-109z" />
    <glyph glyph-name="AEacute" unicode="&#x1fc;" horiz-adv-x="983" 
d="M351 715h574v-126h-300v-167h239v-118h-239v-178h317v-126h-479v168h-218l-77 -168h-157zM297 280h166v309h-24zM597 902h157l-101 -139h-109z" />
    <glyph glyph-name="aeacute" unicode="&#x1fd;" horiz-adv-x="898" 
d="M617 -11q-69 0 -119.5 24.5t-81.5 72.5q-34 -48 -82.5 -72.5t-123.5 -24.5q-38 0 -72 9t-59 28q-26 19 -40.5 48.5t-14.5 70.5q0 46 20 78.5t56 53.5q35 20 84.5 29.5t109.5 9.5h62v18q0 47 -18.5 71.5t-66.5 24.5q-44 0 -64.5 -19.5t-25.5 -54.5h-137q3 46 22.5 80
t50.5 56q30 22 70.5 32.5t86.5 10.5q58 0 100.5 -16t66.5 -54q32 34 74.5 52t96.5 18q49 0 94.5 -15t79.5 -47t54.5 -82.5t20.5 -121.5v-39h-367q4 -66 34.5 -102t89.5 -36q49 0 74 20t31 53h136q-12 -85 -75 -130.5t-167 -45.5zM242 90q51 0 82.5 24.5t31.5 68.5v46h-59
q-61 0 -96 -15.5t-35 -57.5q0 -31 18 -48.5t58 -17.5zM720 316q-4 60 -31 89.5t-77 29.5q-48 0 -78.5 -31t-37.5 -88h224zM453 753h152l-104 -159h-105z" />
    <glyph glyph-name="Oslashacute" unicode="&#x1fe;" horiz-adv-x="816" 
d="M27 21l87 93q-39 47 -59.5 107.5t-20.5 131.5v8q0 80 27.5 147t77.5 115q49 48 116 75t147 27q65 0 121 -17t101 -48l76 81l54 -54l-73 -78q42 -47 65.5 -108.5t23.5 -135.5v-8q0 -80 -26.5 -147.5t-74.5 -116.5t-116 -76.5t-152 -27.5q-70 0 -128.5 18.5t-104.5 53.5
l-87 -93zM404 118q46 0 82.5 17t62.5 48q26 30 40 74t14 98v8q0 38 -7 71t-21 61l-306 -327q27 -25 60.5 -37.5t74.5 -12.5zM201 354q0 -35 6 -65.5t17 -56.5l303 324q-25 21 -56 31t-69 10q-94 0 -147.5 -63t-53.5 -172v-8zM393 902h157l-101 -139h-109z" />
    <glyph glyph-name="oslashacute" unicode="&#x1ff;" horiz-adv-x="616" 
d="M16 6l70 75q-29 34 -44.5 77.5t-15.5 97.5v8q0 61 21 111.5t58 85.5t87.5 54.5t109.5 19.5q47 0 87.5 -11.5t73.5 -34.5l66 71l49 -44l-65 -70q30 -34 47 -79t17 -100v-8q0 -62 -21 -112t-58 -85t-87.5 -54t-109.5 -19q-48 0 -90 12.5t-76 35.5l-70 -75zM302 98
q62 0 95.5 42.5t33.5 117.5v7q0 23 -3.5 42t-9.5 36l-200 -216q16 -14 37 -21.5t47 -7.5zM173 259q0 -21 2.5 -39.5t7.5 -33.5l197 213q-15 13 -34.5 19.5t-43.5 6.5q-61 0 -95 -41.5t-34 -116.5v-8zM300 753h152l-104 -159h-105z" />
    <glyph glyph-name="uni0218" unicode="&#x218;" horiz-adv-x="642" 
d="M327 -11q-74 0 -128 16.5t-90 47.5t-55 74t-22 97h155q3 -24 10 -45.5t23 -36.5q16 -16 41.5 -25.5t65.5 -9.5q54 0 86 26.5t32 68.5q0 21 -6.5 36t-21.5 26q-16 10 -42 17.5t-65 13.5q-69 9 -117.5 24.5t-79.5 41.5q-32 25 -46.5 62t-14.5 89q0 46 18.5 85t52.5 68
q34 28 82 44t107 16q121 0 189.5 -53.5t78.5 -160.5h-149q-7 48 -37 71.5t-82 23.5q-54 0 -80.5 -22.5t-26.5 -58.5q0 -19 5.5 -33.5t20.5 -24.5q14 -11 40 -19t67 -14q65 -8 114 -22.5t82 -38.5q33 -25 49.5 -63t16.5 -93q0 -48 -19 -89.5t-54 -71.5q-35 -31 -86 -49
t-114 -18zM216 -201l47 170l130 -21l-95 -176z" />
    <glyph glyph-name="uni0219" unicode="&#x219;" horiz-adv-x="502" 
d="M253 -11q-106 0 -165 45t-63 130h135q5 -35 24.5 -54.5t67.5 -19.5q42 0 62 15t20 42t-24.5 40.5t-81.5 21.5q-52 8 -88.5 20t-59.5 31q-24 19 -34.5 46.5t-10.5 65.5q0 41 17.5 71.5t46.5 51.5q28 20 65.5 30t77.5 10q43 0 80.5 -8.5t66.5 -27.5q28 -19 46 -50t23 -76
h-133q-6 32 -25 47.5t-57 15.5q-35 0 -54.5 -15t-19.5 -39q0 -25 22 -37t79 -20q49 -7 87 -18t64 -29q25 -19 38.5 -47t13.5 -70q0 -85 -58 -128.5t-162 -43.5zM150 -201l47 170l130 -21l-95 -176z" />
    <glyph glyph-name="uni021A" unicode="&#x21a;" horiz-adv-x="598" 
d="M217 589h-193v126h549v-126h-193v-589h-163v589zM200 -201l47 170l130 -21l-95 -176z" />
    <glyph glyph-name="uni021B" unicode="&#x21b;" horiz-adv-x="377" 
d="M255 -10q-83 0 -126 41.5t-43 123.5v265h-67v103h67v113h144v-113h110v-103h-110v-252q0 -31 14.5 -46.5t43.5 -15.5q16 0 29.5 2.5t25.5 7.5v-112q-15 -5 -37 -9.5t-51 -4.5zM105 -201l47 170l130 -21l-95 -176z" />
    <glyph glyph-name="uni0237" unicode="&#x237;" horiz-adv-x="281" 
d="M-1 -79q38 3 53.5 20t15.5 49v533h144v-532q0 -41 -10.5 -73.5t-35 -55.5t-65.5 -35.5t-102 -13.5v108z" />
    <glyph glyph-name="circumflex" unicode="&#x2c6;" horiz-adv-x="400" 
d="M147 751h109l114 -156h-102l-69 63l-70 -63h-99z" />
    <glyph glyph-name="caron" unicode="&#x2c7;" horiz-adv-x="400" 
d="M30 751h102l69 -63l69 63h100l-117 -156h-109z" />
    <glyph glyph-name="breve" unicode="&#x2d8;" horiz-adv-x="400" 
d="M199 598q-66 0 -107 40t-45 109h95q3 -25 17 -39.5t40 -14.5t41 14.5t20 39.5h93q-4 -69 -47 -109t-107 -40z" />
    <glyph glyph-name="dotaccent" unicode="&#x2d9;" horiz-adv-x="399" 
d="M200 598q-35 0 -58 22.5t-23 54.5t23 54.5t58 22.5q34 0 57 -22.5t23 -54.5t-23 -54.5t-57 -22.5z" />
    <glyph glyph-name="ring" unicode="&#x2da;" horiz-adv-x="402" 
d="M201 643q21 0 35 15t14 38t-14 38.5t-35 15.5q-22 0 -35.5 -15.5t-13.5 -38.5t13.5 -38t35.5 -15zM201 585q-24 0 -44.5 9t-36.5 24t-25 35t-9 43t9 43.5t25 35.5t36.5 24t44.5 9t44.5 -9t36.5 -24t25 -35.5t9 -43.5t-9 -43t-25 -35t-36.5 -24t-44.5 -9z" />
    <glyph glyph-name="ogonek" unicode="&#x2db;" horiz-adv-x="400" 
d="M207 -182q-48 0 -80 20.5t-32 58.5q0 18 7 33.5t19 27.5q12 13 27 23.5t31 18.5h90q-26 -19 -39 -35.5t-13 -35.5q0 -16 9 -23.5t24 -7.5q12 0 21.5 1.5t16.5 5.5v-72q-13 -6 -33.5 -10.5t-47.5 -4.5z" />
    <glyph glyph-name="tilde" unicode="&#x2dc;" horiz-adv-x="400" 
d="M260 598q-19 0 -35 6t-29 13l-26 13q-12 6 -23 6q-13 0 -22.5 -10.5t-12.5 -26.5h-83q5 69 35 105t75 36q18 0 34 -6t30 -12q14 -7 26.5 -13t24.5 -6q14 0 22.5 10t11.5 27h84q-6 -70 -37.5 -106t-74.5 -36z" />
    <glyph glyph-name="hungarumlaut" unicode="&#x2dd;" horiz-adv-x="400" 
d="M112 753h123l-76 -159h-89zM280 753h124l-76 -159h-90z" />
    <glyph glyph-name="Wgrave" unicode="&#x1e80;" horiz-adv-x="971" 
d="M21 715h164l112 -494l122 494h138l127 -497l116 497h150l-174 -715h-165l-129 494l-131 -494h-156zM342 902h156l52 -139h-109z" />
    <glyph glyph-name="wgrave" unicode="&#x1e81;" horiz-adv-x="826" 
d="M16 523h152l93 -352l101 352h119l92 -352l99 352h139l-165 -523h-142l-89 328l-96 -328h-144zM270 753h152l57 -159h-105z" />
    <glyph glyph-name="Wacute" unicode="&#x1e82;" horiz-adv-x="971" 
d="M21 715h164l112 -494l122 494h138l127 -497l116 497h150l-174 -715h-165l-129 494l-131 -494h-156zM486 902h157l-101 -139h-109z" />
    <glyph glyph-name="wacute" unicode="&#x1e83;" horiz-adv-x="826" 
d="M16 523h152l93 -352l101 352h119l92 -352l99 352h139l-165 -523h-142l-89 328l-96 -328h-144zM425 753h152l-104 -159h-105z" />
    <glyph glyph-name="Wdieresis" unicode="&#x1e84;" horiz-adv-x="971" 
d="M21 715h164l112 -494l122 494h138l127 -497l116 497h150l-174 -715h-165l-129 494l-131 -494h-156zM380 769q-31 0 -52.5 21.5t-21.5 51.5t21.5 51t52.5 21q30 0 52 -21t22 -51t-22 -51.5t-52 -21.5zM595 769q-30 0 -51.5 21.5t-21.5 51.5t21.5 51t51.5 21q31 0 52.5 -21
t21.5 -51t-21.5 -51.5t-52.5 -21.5z" />
    <glyph glyph-name="wdieresis" unicode="&#x1e85;" horiz-adv-x="826" 
d="M16 523h152l93 -352l101 352h119l92 -352l99 352h139l-165 -523h-142l-89 328l-96 -328h-144zM318 600q-31 0 -52.5 21t-21.5 51t21.5 51t52.5 21t52.5 -21t21.5 -51t-21.5 -51t-52.5 -21zM522 600q-31 0 -52.5 21t-21.5 51t21.5 51t52.5 21t52.5 -21t21.5 -51t-21.5 -51
t-52.5 -21z" />
    <glyph glyph-name="Ygrave" unicode="&#x1ef2;" horiz-adv-x="648" 
d="M243 308l-236 407h178l145 -274l142 274h157l-223 -407v-308h-163v308zM181 902h156l52 -139h-109z" />
    <glyph glyph-name="ygrave" unicode="&#x1ef3;" horiz-adv-x="567" 
d="M216 53l-208 470h156l127 -314l117 314h139l-283 -701h-140zM134 753h152l57 -159h-105z" />
    <glyph glyph-name="uni2009" unicode="&#x2009;" horiz-adv-x="95" 
 />
    <glyph glyph-name="endash" unicode="&#x2013;" horiz-adv-x="535" 
d="M45 332h445v-92h-445v92z" />
    <glyph glyph-name="emdash" unicode="&#x2014;" horiz-adv-x="924" 
d="M45 332h834v-92h-834v92z" />
    <glyph glyph-name="quoteleft" unicode="&#x2018;" horiz-adv-x="290" 
d="M34 497l129 230l83 -34l-83 -243z" />
    <glyph glyph-name="quoteright" unicode="&#x2019;" horiz-adv-x="290" 
d="M44 484l83 244l129 -47l-130 -231z" />
    <glyph glyph-name="quotesinglbase" unicode="&#x201a;" horiz-adv-x="289" 
d="M42 -75l83 244l129 -47l-130 -231z" />
    <glyph glyph-name="quotedblleft" unicode="&#x201c;" horiz-adv-x="498" 
d="M34 497l129 230l83 -34l-83 -243zM243 497l129 230l83 -34l-83 -243z" />
    <glyph glyph-name="quotedblright" unicode="&#x201d;" horiz-adv-x="498" 
d="M44 484l83 243l129 -46l-129 -231zM253 484l83 243l129 -46l-130 -231z" />
    <glyph glyph-name="quotedblbase" unicode="&#x201e;" horiz-adv-x="498" 
d="M42 -75l83 243l129 -46l-129 -231zM251 -75l83 243l129 -46l-130 -231z" />
    <glyph glyph-name="dagger" unicode="&#x2020;" horiz-adv-x="394" 
d="M137 489h-110v105h110v121h120v-121h109v-105h-109v-276h-120v276z" />
    <glyph glyph-name="daggerdbl" unicode="&#x2021;" horiz-adv-x="394" 
d="M137 507h-110v97h110v111h120v-111h109v-97h-109v-86h109v-97h-109v-111h-120v111h-110v97h110v86z" />
    <glyph glyph-name="bullet" unicode="&#x2022;" horiz-adv-x="357" 
d="M179 169q-29 0 -54 10.5t-43 29.5q-18 18 -28.5 42.5t-10.5 52.5t10.5 52.5t28.5 43.5q18 18 43 28.5t54 10.5t54 -10.5t43 -28.5q18 -19 28 -43.5t10 -52.5t-10 -52.5t-28 -42.5q-18 -19 -43 -29.5t-54 -10.5z" />
    <glyph glyph-name="ellipsis" unicode="&#x2026;" horiz-adv-x="862" 
d="M146 -9q-38 0 -63.5 25.5t-25.5 62.5q0 36 25.5 61.5t63.5 25.5t64 -25.5t26 -61.5q0 -18 -7 -34t-19 -28t-28.5 -19t-35.5 -7zM431 -9q-38 0 -63.5 25.5t-25.5 62.5q0 36 25.5 61.5t63.5 25.5t64 -25.5t26 -61.5q0 -18 -7 -34t-19 -28t-28.5 -19t-35.5 -7zM715 -9
q-38 0 -63.5 25.5t-25.5 62.5q0 36 25.5 61.5t63.5 25.5t64 -25.5t26 -61.5q0 -18 -7 -34t-19 -28t-28.5 -19t-35.5 -7z" />
    <glyph glyph-name="perthousand" unicode="&#x2030;" horiz-adv-x="1187" 
d="M206 467q31 0 48.5 22.5t17.5 61.5q0 38 -17.5 60.5t-48.5 22.5t-49 -22t-18 -61q0 -40 18 -62t49 -22zM205 378q-39 0 -71.5 13t-55.5 36q-24 23 -37 54.5t-13 68.5t14 68.5t38 54.5t56.5 36t69.5 13t69.5 -12.5t56.5 -34.5q24 -23 37.5 -54t13.5 -68q0 -38 -13.5 -70
t-36.5 -55q-24 -23 -56.5 -36.5t-71.5 -13.5zM594 715h90l-475 -715h-90zM591 79q32 0 49 22.5t17 61.5q0 38 -17 60.5t-49 22.5q-31 0 -49 -22t-18 -61q0 -41 18 -62.5t49 -21.5zM591 -11q-39 0 -72 13t-56 37q-23 23 -36 54.5t-13 68.5t13.5 68.5t37.5 54.5t56.5 36
t69.5 13t69.5 -12.5t56.5 -34.5q24 -23 37.5 -54t13.5 -68q0 -38 -13 -70t-36 -55q-24 -24 -56.5 -37.5t-71.5 -13.5zM982 79q32 0 49.5 22.5t17.5 61.5q0 38 -17.5 60.5t-49.5 22.5q-31 0 -49 -22t-18 -61q0 -41 18 -62.5t49 -21.5zM982 -11q-39 0 -72 13t-56 37
q-23 23 -36 54.5t-13 68.5t13.5 68.5t37.5 54.5t56.5 36t69.5 13t69.5 -12.5t56.5 -34.5q24 -23 37.5 -54t13.5 -68q0 -38 -13 -70t-36 -55q-24 -24 -56.5 -37.5t-71.5 -13.5z" />
    <glyph glyph-name="uni2032" unicode="&#x2032;" horiz-adv-x="236" 
d="M61 715h140l-60 -264h-102z" />
    <glyph glyph-name="uni2033" unicode="&#x2033;" horiz-adv-x="430" 
d="M61 715h140l-60 -264h-102zM255 715h140l-60 -264h-102z" />
    <glyph glyph-name="guilsinglleft" unicode="&#x2039;" horiz-adv-x="312" 
d="M41 261l127 186h107l-122 -186l122 -186h-107z" />
    <glyph glyph-name="guilsinglright" unicode="&#x203a;" horiz-adv-x="312" 
d="M159 261l-121 186h107l126 -186l-126 -186h-107z" />
    <glyph glyph-name="fraction" unicode="&#x2044;" horiz-adv-x="148" 
d="M302 715h84l-540 -715h-84z" />
    <glyph glyph-name="zero.sup" unicode="&#x2070;" horiz-adv-x="396" 
d="M192 487q32 0 47.5 25t15.5 75v10q0 50 -16 74.5t-48 24.5q-31 0 -46.5 -25t-15.5 -75v-9q0 -50 16 -75t47 -25zM190 403q-81 0 -125.5 48.5t-44.5 134.5v10q0 87 48 134.5t124 47.5q37 0 68.5 -11.5t54.5 -33.5q23 -23 36 -56.5t13 -78.5v-9q0 -87 -46.5 -136.5
t-127.5 -49.5z" />
    <glyph glyph-name="four.sup" unicode="&#x2074;" horiz-adv-x="367" 
d="M189 479h-181v40l155 254h131v-221h47v-73h-47v-69h-105v69zM192 552v147l-85 -147h85z" />
    <glyph glyph-name="five.sup" unicode="&#x2075;" horiz-adv-x="344" 
d="M167 403q-75 0 -110 33.5t-37 84.5h99q3 -17 12.5 -27.5t33.5 -10.5q21 0 32.5 14t11.5 37t-12 36t-34 13q-20 0 -32 -7.5t-19 -18.5h-78l8 216h255v-78h-178l-3 -84q11 16 31.5 28.5t58.5 12.5q51 0 81.5 -30t30.5 -87q0 -61 -40 -96.5t-111 -35.5z" />
    <glyph glyph-name="six.sup" unicode="&#x2076;" horiz-adv-x="366" 
d="M190 403q-44 0 -75.5 13t-50.5 37q-20 24 -29 57t-9 72v10q0 44 12.5 78.5t35.5 58.5q22 24 53.5 36.5t68.5 12.5q63 0 98.5 -27.5t40.5 -80.5h-99q-3 13 -11.5 21.5t-27.5 8.5q-30 0 -45.5 -25.5t-17.5 -71.5q13 19 33 30.5t54 11.5q25 0 47.5 -7t39.5 -21
q16 -14 25.5 -35.5t9.5 -50.5q0 -57 -40.5 -92.5t-112.5 -35.5zM189 477q22 0 35.5 14.5t13.5 37.5t-13 37.5t-36 14.5t-36 -14.5t-13 -35.5q0 -25 13.5 -39.5t35.5 -14.5z" />
    <glyph glyph-name="seven.sup" unicode="&#x2077;" horiz-adv-x="316" 
d="M164 687h-152v86h288v-11l-132 -352h-109z" />
    <glyph glyph-name="eight.sup" unicode="&#x2078;" horiz-adv-x="356" 
d="M172 403q-72 0 -114 27.5t-42 80.5q0 32 17 55.5t50 34.5q-24 10 -38 28t-14 47q0 24 11 43t31 32q19 13 45 20t55 7q60 0 100.5 -26t40.5 -76q0 -29 -14 -46.5t-38 -27.5q33 -11 49.5 -34t16.5 -53q0 -54 -42 -83t-114 -29zM172 478q21 0 35 12t14 34q0 20 -13.5 32.5
t-35.5 12.5q-20 0 -34.5 -12t-14.5 -34t14.5 -33.5t34.5 -11.5zM173 628q18 0 30 10.5t12 28.5t-12.5 28.5t-29.5 10.5t-30 -10.5t-13 -28.5t13 -28.5t30 -10.5z" />
    <glyph glyph-name="nine.sup" unicode="&#x2079;" horiz-adv-x="366" 
d="M167 403q-65 0 -102.5 29t-42.5 81h100q3 -14 12.5 -22.5t31.5 -8.5q31 0 45 24.5t15 69.5q-13 -17 -31 -28.5t-52 -11.5q-53 0 -89.5 27.5t-36.5 86.5q0 58 40.5 93t111.5 35q85 0 125.5 -49t40.5 -128v-13q0 -88 -43 -136.5t-125 -48.5zM169 601q23 0 36.5 14t13.5 35
q0 25 -13.5 40t-36.5 15q-22 0 -35 -15t-13 -38t12.5 -37t35.5 -14z" />
    <glyph glyph-name="plus.sup" unicode="&#x207a;" horiz-adv-x="351" 
d="M135 555h-98v78h98v102h80v-102h99v-78h-99v-101h-80v101z" />
    <glyph glyph-name="minus.sup" unicode="&#x207b;" horiz-adv-x="351" 
d="M37 633h277v-78h-277v78z" />
    <glyph glyph-name="zero.sub" unicode="&#x2080;" horiz-adv-x="396" 
d="M192 -30q32 0 47.5 25t15.5 75v10q0 50 -16 74.5t-48 24.5q-31 0 -46.5 -25t-15.5 -75v-9q0 -50 16 -75t47 -25zM190 -114q-81 0 -125.5 48.5t-44.5 134.5v10q0 87 48 134.5t124 47.5q37 0 68.5 -11.5t54.5 -33.5q23 -23 36 -56.5t13 -78.5v-9q0 -87 -46.5 -136.5
t-127.5 -49.5z" />
    <glyph glyph-name="one.sub" unicode="&#x2081;" horiz-adv-x="267" 
d="M103 150l-82 -49v89l97 65h95v-363h-110v258z" />
    <glyph glyph-name="two.sub" unicode="&#x2082;" horiz-adv-x="329" 
d="M6 -93l128 134q29 30 46 53.5t17 46.5q0 18 -9.5 28.5t-28.5 10.5q-20 0 -31.5 -13.5t-15.5 -43.5h-99q3 68 43 103t108 35q70 0 104.5 -32t34.5 -81q0 -38 -20 -68t-52 -61l-49 -48h124v-78h-300v14z" />
    <glyph glyph-name="three.sub" unicode="&#x2083;" horiz-adv-x="351" 
d="M168 -114q-40 0 -68.5 9.5t-47.5 25.5q-19 17 -28.5 40t-10.5 51h96q2 -21 14.5 -35t38.5 -14q24 0 36 11t12 30q0 21 -12.5 31t-37.5 10h-29v64h28q25 0 37 10t12 30q0 16 -10 26t-30 10t-33 -12t-16 -33h-96q4 53 41 87t106 34q67 0 104 -27t37 -73q0 -31 -17 -50.5
t-47 -27.5q32 -6 52.5 -27.5t20.5 -54.5q0 -52 -38.5 -83.5t-113.5 -31.5z" />
    <glyph glyph-name="four.sub" unicode="&#x2084;" horiz-adv-x="367" 
d="M189 -38h-181v40l155 254h131v-221h47v-73h-47v-69h-105v69zM192 35v147l-85 -147h85z" />
    <glyph glyph-name="five.sub" unicode="&#x2085;" horiz-adv-x="344" 
d="M167 -114q-75 0 -110 33.5t-37 84.5h99q3 -17 12.5 -27.5t33.5 -10.5q21 0 32.5 14t11.5 37t-12 36t-34 13q-20 0 -32 -7.5t-19 -18.5h-78l8 216h255v-78h-178l-3 -84q11 16 31.5 28.5t58.5 12.5q51 0 81.5 -30t30.5 -87q0 -61 -40 -96.5t-111 -35.5z" />
    <glyph glyph-name="six.sub" unicode="&#x2086;" horiz-adv-x="366" 
d="M190 -114q-44 0 -75.5 13t-50.5 37q-20 24 -29 57t-9 72v10q0 44 12.5 78.5t35.5 58.5q22 24 53.5 36.5t68.5 12.5q63 0 98.5 -27.5t40.5 -80.5h-99q-3 13 -11.5 21.5t-27.5 8.5q-30 0 -45.5 -25.5t-17.5 -71.5q13 19 33 30.5t54 11.5q25 0 47.5 -7t39.5 -21
q16 -14 25.5 -35.5t9.5 -50.5q0 -57 -40.5 -92.5t-112.5 -35.5zM189 -40q22 0 35.5 14.5t13.5 37.5t-13 37.5t-36 14.5t-36 -14.5t-13 -35.5q0 -25 13.5 -39.5t35.5 -14.5z" />
    <glyph glyph-name="seven.sub" unicode="&#x2087;" horiz-adv-x="316" 
d="M164 170h-152v86h288v-11l-132 -352h-109z" />
    <glyph glyph-name="eight.sub" unicode="&#x2088;" horiz-adv-x="356" 
d="M172 -114q-72 0 -114 27.5t-42 80.5q0 32 17 55.5t50 34.5q-24 10 -38 28t-14 47q0 24 11 43t31 32q19 13 45 20t55 7q60 0 100.5 -26t40.5 -76q0 -29 -14 -46.5t-38 -27.5q33 -11 49.5 -34t16.5 -53q0 -54 -42 -83t-114 -29zM172 -39q21 0 35 12t14 34q0 20 -13.5 32.5
t-35.5 12.5q-20 0 -34.5 -12t-14.5 -34t14.5 -33.5t34.5 -11.5zM173 111q18 0 30 10.5t12 28.5t-12.5 28.5t-29.5 10.5t-30 -10.5t-13 -28.5t13 -28.5t30 -10.5z" />
    <glyph glyph-name="nine.sub" unicode="&#x2089;" horiz-adv-x="366" 
d="M167 -114q-65 0 -102.5 29t-42.5 81h100q3 -14 12.5 -22.5t31.5 -8.5q31 0 45 24.5t15 69.5q-13 -17 -31 -28.5t-52 -11.5q-53 0 -89.5 27.5t-36.5 86.5q0 58 40.5 93t111.5 35q85 0 125.5 -49t40.5 -128v-13q0 -88 -43 -136.5t-125 -48.5zM169 84q23 0 36.5 14t13.5 35
q0 25 -13.5 40t-36.5 15q-22 0 -35 -15t-13 -38t12.5 -37t35.5 -14z" />
    <glyph glyph-name="plus.sub" unicode="&#x208a;" horiz-adv-x="351" 
d="M129 38h-98v78h98v102h80v-102h99v-78h-99v-101h-80v101z" />
    <glyph glyph-name="minus.sub" unicode="&#x208b;" horiz-adv-x="351" 
d="M31 116h277v-78h-277v78z" />
    <glyph glyph-name="Euro" unicode="&#x20ac;" horiz-adv-x="703" 
d="M26 452h67q8 59 31.5 109t61.5 87q38 36 89 56.5t113 20.5q121 0 191.5 -62.5t82.5 -181.5h-151q-8 59 -39.5 90t-84.5 31q-60 0 -93.5 -40.5t-43.5 -109.5h186l-12 -66h-177v-62h166l-12 -66h-151q10 -69 43 -106t95 -37q57 0 89.5 33.5t41.5 100.5h149
q-14 -124 -85 -192t-198 -68q-64 0 -115 20t-87 56q-37 35 -60 84.5t-30 108.5h-67v66h63v62h-63v66z" />
    <glyph glyph-name="trademark" unicode="&#x2122;" horiz-adv-x="744" 
d="M342 715h109l70 -183l71 183h111v-322h-89v208l-84 -208h-28l-83 208v-208h-77v322zM119 645h-88v70h265v-70h-88v-252h-89v252z" />
    <glyph glyph-name="onethird" unicode="&#x2153;" horiz-adv-x="780" 
d="M106 610l-82 -49v89l97 65h95v-363h-110v258zM593 715h84l-540 -715h-84zM599 -6q-40 0 -68.5 9.5t-47.5 25.5q-19 17 -28.5 40t-10.5 51h96q2 -21 14.5 -35t38.5 -14q24 0 36 11t12 30q0 21 -12.5 31t-37.5 10h-29v64h28q25 0 37 10t12 30q0 16 -10 26t-30 10t-33 -12
t-16 -33h-96q4 53 41 87t106 34q67 0 104 -27t37 -73q0 -31 -17 -50.5t-47 -27.5q32 -6 52.5 -27.5t20.5 -54.5q0 -52 -38.5 -83.5t-113.5 -31.5z" />
    <glyph glyph-name="twothirds" unicode="&#x2154;" horiz-adv-x="814" 
d="M646 715h84l-540 -715h-84zM3 366l128 134q29 30 46 53.5t17 46.5q0 18 -9.5 28.5t-28.5 10.5q-20 0 -31.5 -13.5t-15.5 -43.5h-99q3 68 43 103t108 35q70 0 104.5 -32t34.5 -81q0 -38 -20 -68t-52 -61l-49 -48h124v-78h-300v14zM627 -6q-40 0 -68.5 9.5t-47.5 25.5
q-19 17 -28.5 40t-10.5 51h96q2 -21 14.5 -35t38.5 -14q24 0 36 11t12 30q0 21 -12.5 31t-37.5 10h-29v64h28q25 0 37 10t12 30q0 16 -10 26t-30 10t-33 -12t-16 -33h-96q4 53 41 87t106 34q67 0 104 -27t37 -73q0 -31 -17 -50.5t-47 -27.5q32 -6 52.5 -27.5t20.5 -54.5
q0 -52 -38.5 -83.5t-113.5 -31.5z" />
    <glyph glyph-name="oneeighth" unicode="&#x215b;" horiz-adv-x="779" 
d="M106 610l-82 -49v89l97 65h95v-363h-110v258zM588 715h84l-540 -715h-84zM591 -6q-72 0 -114 27.5t-42 80.5q0 32 17 55.5t50 34.5q-24 10 -38 28t-14 47q0 24 11 43t31 32q19 13 45 20t55 7q60 0 100.5 -26t40.5 -76q0 -29 -14 -46.5t-38 -27.5q33 -11 49.5 -34
t16.5 -53q0 -54 -42 -83t-114 -29zM591 69q21 0 35 12t14 34q0 20 -13.5 32.5t-35.5 12.5q-20 0 -34.5 -12t-14.5 -34t14.5 -33.5t34.5 -11.5zM592 219q18 0 30 10.5t12 28.5t-12.5 28.5t-29.5 10.5t-30 -10.5t-13 -28.5t13 -28.5t30 -10.5z" />
    <glyph glyph-name="threeeighths" unicode="&#x215c;" horiz-adv-x="819" 
d="M177 345q-40 0 -68.5 9.5t-47.5 25.5q-19 17 -28.5 40t-10.5 51h96q2 -21 14.5 -35t38.5 -14q24 0 36 11t12 30q0 21 -12.5 31t-37.5 10h-29v64h28q25 0 37 10t12 30q0 16 -10 26t-30 10t-33 -12t-16 -33h-96q4 53 41 87t106 34q67 0 104 -27t37 -73q0 -31 -17 -50.5
t-47 -27.5q32 -6 52.5 -27.5t20.5 -54.5q0 -52 -38.5 -83.5t-113.5 -31.5zM639 715h84l-540 -715h-84zM631 -6q-72 0 -114 27.5t-42 80.5q0 32 17 55.5t50 34.5q-24 10 -38 28t-14 47q0 24 11 43t31 32q19 13 45 20t55 7q60 0 100.5 -26t40.5 -76q0 -29 -14 -46.5t-38 -27.5
q33 -11 49.5 -34t16.5 -53q0 -54 -42 -83t-114 -29zM631 69q21 0 35 12t14 34q0 20 -13.5 32.5t-35.5 12.5q-20 0 -34.5 -12t-14.5 -34t14.5 -33.5t34.5 -11.5zM632 219q18 0 30 10.5t12 28.5t-12.5 28.5t-29.5 10.5t-30 -10.5t-13 -28.5t13 -28.5t30 -10.5z" />
    <glyph glyph-name="fiveeighths" unicode="&#x215d;" horiz-adv-x="804" 
d="M170 345q-75 0 -110 33.5t-37 84.5h99q3 -17 12.5 -27.5t33.5 -10.5q21 0 32.5 14t11.5 37t-12 36t-34 13q-20 0 -32 -7.5t-19 -18.5h-78l8 216h255v-78h-178l-3 -84q11 16 31.5 28.5t58.5 12.5q51 0 81.5 -30t30.5 -87q0 -61 -40 -96.5t-111 -35.5zM624 715h84
l-540 -715h-84zM617 -6q-72 0 -114 27.5t-42 80.5q0 32 17 55.5t50 34.5q-24 10 -38 28t-14 47q0 24 11 43t31 32q19 13 45 20t55 7q60 0 100.5 -26t40.5 -76q0 -29 -14 -46.5t-38 -27.5q33 -11 49.5 -34t16.5 -53q0 -54 -42 -83t-114 -29zM617 69q21 0 35 12t14 34
q0 20 -13.5 32.5t-35.5 12.5q-20 0 -34.5 -12t-14.5 -34t14.5 -33.5t34.5 -11.5zM618 219q18 0 30 10.5t12 28.5t-12.5 28.5t-29.5 10.5t-30 -10.5t-13 -28.5t13 -28.5t30 -10.5z" />
    <glyph glyph-name="seveneighths" unicode="&#x215e;" horiz-adv-x="775" 
d="M575 715h84l-540 -715h-84zM173 629h-152v86h288v-11l-132 -352h-109zM587 -6q-72 0 -114 27.5t-42 80.5q0 32 17 55.5t50 34.5q-24 10 -38 28t-14 47q0 24 11 43t31 32q19 13 45 20t55 7q60 0 100.5 -26t40.5 -76q0 -29 -14 -46.5t-38 -27.5q33 -11 49.5 -34t16.5 -53
q0 -54 -42 -83t-114 -29zM587 69q21 0 35 12t14 34q0 20 -13.5 32.5t-35.5 12.5q-20 0 -34.5 -12t-14.5 -34t14.5 -33.5t34.5 -11.5zM588 219q18 0 30 10.5t12 28.5t-12.5 28.5t-29.5 10.5t-30 -10.5t-13 -28.5t13 -28.5t30 -10.5z" />
    <glyph glyph-name="minus" unicode="&#x2212;" horiz-adv-x="553" 
d="M37 397h479v-113h-479v113z" />
    <glyph glyph-name="approxequal" unicode="&#x2248;" horiz-adv-x="549" 
d="M40 137q3 41 14 71t29 49q17 19 39.5 28t46.5 9q30 0 58.5 -6.5t55.5 -14.5t50.5 -14.5t42.5 -6.5q17 0 29.5 11t15.5 34h88q-2 -40 -13 -69t-28 -48q-18 -20 -40 -29.5t-46 -9.5q-30 0 -59.5 6.5t-55.5 14.5q-27 7 -50.5 13.5t-42.5 6.5t-30.5 -11t-15.5 -34h-88z
M40 342q3 41 14 70.5t29 48.5q17 19 39.5 28t46.5 9q30 0 58.5 -6.5t55.5 -13.5q27 -8 50.5 -14.5t42.5 -6.5q17 0 29.5 11t15.5 33h88q-2 -40 -13 -69t-28 -48q-18 -20 -40 -29.5t-46 -9.5q-30 0 -59.5 6.5t-55.5 14.5q-27 8 -50.5 14.5t-42.5 6.5t-30.5 -11t-15.5 -34h-88
z" />
    <glyph glyph-name="notequal" unicode="&#x2260;" horiz-adv-x="530" 
d="M39 472h233l39 99h101l-39 -99h118v-104h-158l-33 -87h191v-103h-231l-38 -99h-101l38 99h-120v103h160l33 87h-193v104z" />
    <glyph glyph-name="lessequal" unicode="&#x2264;" horiz-adv-x="509" 
d="M46 352v29l408 218v-130l-200 -102l200 -101v-132zM46 100h408v-100h-408v100z" />
    <glyph glyph-name="greaterequal" unicode="&#x2265;" horiz-adv-x="509" 
d="M50 266l200 101l-200 102v130l408 -218v-29l-408 -218v132zM50 100h408v-100h-408v100z" />
    <glyph glyph-name="uni24C5" unicode="&#x24c5;" horiz-adv-x="843" 
d="M288 560h148q80 0 119.5 -34t39.5 -98v-3q0 -64 -40.5 -95.5t-113.5 -31.5h-45v-139h-108v401zM432 371q31 0 46 13.5t15 40.5v3q0 25 -15 37.5t-46 12.5h-36v-107h36zM421 32q65 0 123.5 23.5t102.5 66.5t69.5 103.5t25.5 133.5q0 72 -25 131.5t-68 102.5
q-44 43 -102 66.5t-124 23.5q-67 0 -126 -24t-102 -67q-44 -43 -69 -103t-25 -132q0 -73 26 -133t70 -102q43 -43 101 -66.5t123 -23.5zM421 -16q-78 0 -147 28.5t-120 79.5q-51 50 -80.5 118t-29.5 147q0 78 29.5 146t80.5 119t120 80t149 29t149 -29t120 -79
q50 -51 79 -118.5t29 -145.5q0 -80 -29.5 -148.5t-80.5 -118.5q-52 -50 -121 -79t-148 -29z" />
    <glyph glyph-name="zero.den" unicode="&#xe402;" horiz-adv-x="396" 
d="M192 78q32 0 47.5 25t15.5 75v10q0 50 -16 74.5t-48 24.5q-31 0 -46.5 -25t-15.5 -75v-9q0 -50 16 -75t47 -25zM190 -6q-81 0 -125.5 48.5t-44.5 134.5v10q0 87 48 134.5t124 47.5q37 0 68.5 -11.5t54.5 -33.5q23 -23 36 -56.5t13 -78.5v-9q0 -87 -46.5 -136.5
t-127.5 -49.5z" />
    <glyph glyph-name="one.den" unicode="&#xe403;" horiz-adv-x="267" 
d="M103 258l-82 -49v89l97 65h95v-363h-110v258z" />
    <glyph glyph-name="two.den" unicode="&#xe404;" horiz-adv-x="329" 
d="M0 14l128 134q29 30 46 53.5t17 46.5q0 18 -9.5 28.5t-28.5 10.5q-20 0 -31.5 -13.5t-15.5 -43.5h-99q3 68 43 103t108 35q70 0 104.5 -32t34.5 -81q0 -38 -20 -68t-52 -61l-49 -48h124v-78h-300v14z" />
    <glyph glyph-name="three.den" unicode="&#xe405;" horiz-adv-x="351" 
d="M174 -6q-40 0 -68.5 9.5t-47.5 25.5q-19 17 -28.5 40t-10.5 51h96q2 -21 14.5 -35t38.5 -14q24 0 36 11t12 30q0 21 -12.5 31t-37.5 10h-29v64h28q25 0 37 10t12 30q0 16 -10 26t-30 10t-33 -12t-16 -33h-96q4 53 41 87t106 34q67 0 104 -27t37 -73q0 -31 -17 -50.5
t-47 -27.5q32 -6 52.5 -27.5t20.5 -54.5q0 -52 -38.5 -83.5t-113.5 -31.5z" />
    <glyph glyph-name="four.den" unicode="&#xe406;" horiz-adv-x="367" 
d="M189 69h-181v40l155 254h131v-221h47v-73h-47v-69h-105v69zM192 142v147l-85 -147h85z" />
    <glyph glyph-name="five.den" unicode="&#xe407;" horiz-adv-x="344" 
d="M167 -6q-75 0 -110 33.5t-37 84.5h99q3 -17 12.5 -27.5t33.5 -10.5q21 0 32.5 14t11.5 37t-12 36t-34 13q-20 0 -32 -7.5t-19 -18.5h-78l8 216h255v-78h-178l-3 -84q11 16 31.5 28.5t58.5 12.5q51 0 81.5 -30t30.5 -87q0 -61 -40 -96.5t-111 -35.5z" />
    <glyph glyph-name="six.den" unicode="&#xe408;" horiz-adv-x="366" 
d="M190 -6q-44 0 -75.5 13t-50.5 37q-20 24 -29 57t-9 72v10q0 44 12.5 78.5t35.5 58.5q22 24 53.5 36.5t68.5 12.5q63 0 98.5 -27.5t40.5 -80.5h-99q-3 13 -11.5 21.5t-27.5 8.5q-30 0 -45.5 -25.5t-17.5 -71.5q13 19 33 30.5t54 11.5q25 0 47.5 -7t39.5 -21
q16 -14 25.5 -35.5t9.5 -50.5q0 -57 -40.5 -92.5t-112.5 -35.5zM189 68q22 0 35.5 14.5t13.5 37.5t-13 37.5t-36 14.5t-36 -14.5t-13 -35.5q0 -25 13.5 -39.5t35.5 -14.5z" />
    <glyph glyph-name="seven.den" unicode="&#xe409;" horiz-adv-x="316" 
d="M164 277h-152v86h288v-11l-132 -352h-109z" />
    <glyph glyph-name="eight.den" unicode="&#xe40a;" horiz-adv-x="356" 
d="M172 -6q-72 0 -114 27.5t-42 80.5q0 32 17 55.5t50 34.5q-24 10 -38 28t-14 47q0 24 11 43t31 32q19 13 45 20t55 7q60 0 100.5 -26t40.5 -76q0 -29 -14 -46.5t-38 -27.5q33 -11 49.5 -34t16.5 -53q0 -54 -42 -83t-114 -29zM172 69q21 0 35 12t14 34q0 20 -13.5 32.5
t-35.5 12.5q-20 0 -34.5 -12t-14.5 -34t14.5 -33.5t34.5 -11.5zM173 219q18 0 30 10.5t12 28.5t-12.5 28.5t-29.5 10.5t-30 -10.5t-13 -28.5t13 -28.5t30 -10.5z" />
    <glyph glyph-name="nine.den" unicode="&#xe40b;" horiz-adv-x="366" 
d="M167 -6q-65 0 -102.5 29t-42.5 81h100q3 -14 12.5 -22.5t31.5 -8.5q31 0 45 24.5t15 69.5q-13 -17 -31 -28.5t-52 -11.5q-53 0 -89.5 27.5t-36.5 86.5q0 58 40.5 93t111.5 35q85 0 125.5 -49t40.5 -128v-13q0 -88 -43 -136.5t-125 -48.5zM169 192q23 0 36.5 14t13.5 35
q0 25 -13.5 40t-36.5 15q-22 0 -35 -15t-13 -38t12.5 -37t35.5 -14z" />
    <glyph glyph-name="zero.num" unicode="&#xe416;" horiz-adv-x="396" 
d="M198 429q32 0 47.5 25t15.5 75v10q0 50 -16 74.5t-48 24.5q-31 0 -46.5 -25t-15.5 -75v-9q0 -50 16 -75t47 -25zM196 345q-81 0 -125.5 48.5t-44.5 134.5v10q0 87 48 134.5t124 47.5q37 0 68.5 -11.5t54.5 -33.5q23 -23 36 -56.5t13 -78.5v-9q0 -87 -46.5 -136.5
t-127.5 -49.5z" />
    <glyph glyph-name="one.num" unicode="&#xe417;" horiz-adv-x="266" 
d="M103 610l-82 -49v89l97 65h95v-363h-110v258z" />
    <glyph glyph-name="two.num" unicode="&#xe418;" horiz-adv-x="329" 
d="M6 366l128 134q29 30 46 53.5t17 46.5q0 18 -9.5 28.5t-28.5 10.5q-20 0 -31.5 -13.5t-15.5 -43.5h-99q3 68 43 103t108 35q70 0 104.5 -32t34.5 -81q0 -38 -20 -68t-52 -61l-49 -48h124v-78h-300v14z" />
    <glyph glyph-name="three.num" unicode="&#xe419;" horiz-adv-x="351" 
d="M174 345q-40 0 -68.5 9.5t-47.5 25.5q-19 17 -28.5 40t-10.5 51h96q2 -21 14.5 -35t38.5 -14q24 0 36 11t12 30q0 21 -12.5 31t-37.5 10h-29v64h28q25 0 37 10t12 30q0 16 -10 26t-30 10t-33 -12t-16 -33h-96q4 53 41 87t106 34q67 0 104 -27t37 -73q0 -31 -17 -50.5
t-47 -27.5q32 -6 52.5 -27.5t20.5 -54.5q0 -52 -38.5 -83.5t-113.5 -31.5z" />
    <glyph glyph-name="four.num" unicode="&#xe41a;" horiz-adv-x="366" 
d="M195 421h-181v40l155 254h131v-221h47v-73h-47v-69h-105v69zM198 494v147l-85 -147h85z" />
    <glyph glyph-name="five.num" unicode="&#xe41b;" horiz-adv-x="343" 
d="M167 345q-75 0 -110 33.5t-37 84.5h99q3 -17 12.5 -27.5t33.5 -10.5q21 0 32.5 14t11.5 37t-12 36t-34 13q-20 0 -32 -7.5t-19 -18.5h-78l8 216h255v-78h-178l-3 -84q11 16 31.5 28.5t58.5 12.5q51 0 81.5 -30t30.5 -87q0 -61 -40 -96.5t-111 -35.5z" />
    <glyph glyph-name="six.num" unicode="&#xe41c;" horiz-adv-x="365" 
d="M190 345q-44 0 -75.5 13t-50.5 37q-20 24 -29 57t-9 72v10q0 44 12.5 78.5t35.5 58.5q22 24 53.5 36.5t68.5 12.5q63 0 98.5 -27.5t40.5 -80.5h-99q-3 13 -11.5 21.5t-27.5 8.5q-30 0 -45.5 -25.5t-17.5 -71.5q13 19 33 30.5t54 11.5q25 0 47.5 -7t39.5 -21
q16 -14 25.5 -35.5t9.5 -50.5q0 -57 -40.5 -92.5t-112.5 -35.5zM189 419q22 0 35.5 14.5t13.5 37.5t-13 37.5t-36 14.5t-36 -14.5t-13 -35.5q0 -25 13.5 -39.5t35.5 -14.5z" />
    <glyph glyph-name="seven.num" unicode="&#xe41d;" horiz-adv-x="316" 
d="M170 629h-152v86h288v-11l-132 -352h-109z" />
    <glyph glyph-name="eight.num" unicode="&#xe41e;" horiz-adv-x="356" 
d="M178 345q-72 0 -114 27.5t-42 80.5q0 32 17 55.5t50 34.5q-24 10 -38 28t-14 47q0 24 11 43t31 32q19 13 45 20t55 7q60 0 100.5 -26t40.5 -76q0 -29 -14 -46.5t-38 -27.5q33 -11 49.5 -34t16.5 -53q0 -54 -42 -83t-114 -29zM178 420q21 0 35 12t14 34q0 20 -13.5 32.5
t-35.5 12.5q-20 0 -34.5 -12t-14.5 -34t14.5 -33.5t34.5 -11.5zM179 570q18 0 30 10.5t12 28.5t-12.5 28.5t-29.5 10.5t-30 -10.5t-13 -28.5t13 -28.5t30 -10.5z" />
    <glyph glyph-name="nine.num" unicode="&#xe41f;" horiz-adv-x="365" 
d="M173 345q-65 0 -102.5 29t-42.5 81h100q3 -14 12.5 -22.5t31.5 -8.5q31 0 45 24.5t15 69.5q-13 -17 -31 -28.5t-52 -11.5q-53 0 -89.5 27.5t-36.5 86.5q0 58 40.5 93t111.5 35q85 0 125.5 -49t40.5 -128v-13q0 -88 -43 -136.5t-125 -48.5zM175 543q23 0 36.5 14t13.5 35
q0 25 -13.5 40t-36.5 15q-22 0 -35 -15t-13 -38t12.5 -37t35.5 -14z" />
    <glyph glyph-name="f_i" unicode="&#xfb01;" horiz-adv-x="647" 
d="M82 420h-69v103h69v60q0 92 49 137.5t137 45.5q23 0 39.5 -2t31.5 -7v-109q-10 4 -21.5 6t-27.5 2q-34 0 -49 -19.5t-15 -49.5v-64h113v-103h-113v-420h-144v420zM498 594q-35 0 -58.5 22.5t-23.5 56.5t23.5 56.5t58.5 22.5t59 -22.5t24 -56.5t-24 -56.5t-59 -22.5z
M427 523h144v-523h-144v523z" />
    <glyph glyph-name="f_l" unicode="&#xfb02;" horiz-adv-x="640" 
d="M82 420h-69v103h69v60q0 92 49 137.5t137 45.5q23 0 39.5 -2t31.5 -7v-109q-10 4 -21.5 6t-27.5 2q-34 0 -49 -19.5t-15 -49.5v-64h113v-103h-113v-420h-144v420zM427 760h144v-760h-144v760z" />
    <glyph glyph-name="idotaccent" horiz-adv-x="281" 
d="M139 594q-35 0 -58.5 22.5t-23.5 56.5t23.5 56.5t58.5 22.5t59 -22.5t24 -56.5t-24 -56.5t-59 -22.5zM68 523h144v-523h-144v523z" />
    <glyph glyph-name="space_uni0326" horiz-adv-x="412" 
d="M114 -201l47 170l130 -21l-95 -176z" />
    <glyph glyph-name="dollar.old" horiz-adv-x="628" 
d="M277 -9q-62 4 -107 23t-75 49q-30 29 -45.5 68t-18.5 85h144q3 -21 8.5 -39.5t17.5 -33.5q11 -15 29.5 -25.5t46.5 -14.5v188q-115 18 -170 65t-55 143q0 41 16 76.5t45 62.5t71 43.5t93 20.5v87h71v-88q99 -9 156.5 -58.5t66.5 -143.5h-139q-7 38 -26 60t-58 30v-172
q54 -9 97.5 -23.5t74.5 -38.5q30 -24 46 -59t16 -86q0 -43 -15 -81.5t-44 -67.5q-30 -29 -74 -48t-101 -23v-121h-71v122zM438 194q0 35 -18.5 54t-71.5 31v-177q42 8 66 32.5t24 59.5zM190 511q0 -33 17 -52.5t70 -30.5v163q-43 -6 -65 -28t-22 -52z" />
    <glyph glyph-name="Euro.old" horiz-adv-x="682" 
d="M25 438h65q8 58 31 106.5t60 83.5q36 35 85.5 55t110.5 20q117 0 185 -60.5t79 -175.5h-145q-8 57 -39 87t-82 30q-59 0 -91.5 -39.5t-41.5 -106.5h181l-12 -64h-172v-59h161l-11 -65h-147q9 -66 42 -102t93 -36q55 0 86.5 32.5t39.5 96.5h145q-14 -119 -82.5 -185.5
t-191.5 -66.5q-62 0 -111.5 19.5t-85.5 54.5q-36 34 -58 82t-29 105h-65v65h62v59h-62v64z" />
    <glyph glyph-name="sterling.old" horiz-adv-x="624" 
d="M38 384h55q-6 23 -10 49.5t-4 55.5q0 50 19 90t52 68q33 27 78 41.5t98 14.5q60 0 104.5 -15.5t74.5 -43.5q30 -29 46 -68.5t19 -88.5h-144q-8 49 -29.5 72t-66.5 23q-42 0 -68.5 -27t-26.5 -74q0 -26 2.5 -50t7.5 -47h185v-96h-167q3 -20 5 -39.5t2 -41.5
q0 -15 -2.5 -30t-8.5 -29q35 -11 64.5 -22t52.5 -11q32 0 50.5 15.5t20.5 51.5h140q-2 -41 -14.5 -76t-35.5 -60q-24 -26 -57 -40.5t-76 -14.5q-35 0 -65 8.5t-55 19.5q-26 10 -47.5 18.5t-40.5 8.5q-26 0 -38 -14t-14 -32h-120q2 24 9 47.5t20 44.5q12 20 30.5 35.5
t42.5 24.5q4 12 6.5 25t2.5 30q0 21 -4 41t-9 40h-84v96z" />
    <glyph glyph-name="yen.old" horiz-adv-x="602" 
d="M69 345h140l-192 349h169l126 -259l123 259h151l-183 -349h141v-64h-159v-60h159v-64h-159v-157h-157v157h-159v64h159v60h-159v64z" />
    <glyph glyph-name="zero.old" horiz-adv-x="663" 
d="M333 108q69 0 102.5 48t33.5 141v27q0 91 -34.5 140t-102.5 49t-103 -47.5t-35 -140.5v-28q0 -94 35 -141.5t104 -47.5zM331 -11q-65 0 -118.5 21t-91.5 61q-39 39 -60.5 95.5t-21.5 128.5v28q0 72 21.5 129t60.5 97q39 39 93 60t118 21t117.5 -20.5t92.5 -58.5
q39 -39 60.5 -95.5t21.5 -128.5v-28q0 -72 -21 -129.5t-59 -97.5q-39 -40 -93 -61.5t-120 -21.5z" />
    <glyph glyph-name="one.old" horiz-adv-x="418" 
d="M175 468l-142 -92v131l161 112h133v-619h-152v468z" />
    <glyph glyph-name="two.old" horiz-adv-x="570" 
d="M15 25l236 223q26 25 48 47.5t38 44.5q15 21 24 42.5t9 44.5q0 39 -23.5 62.5t-68.5 23.5t-73.5 -29.5t-36.5 -92.5h-137q3 55 21.5 99t51.5 75t79 48t103 17q55 0 99 -14t75 -39q31 -26 47 -61.5t16 -78.5q0 -33 -11 -62t-30 -56q-20 -28 -47 -55.5t-59 -56.5l-100 -93
h253v-114h-514v25z" />
    <glyph glyph-name="three.old" horiz-adv-x="610" 
d="M304 -105q-67 0 -117.5 17t-84.5 48q-34 32 -52 75t-20 96h139q5 -54 34.5 -87.5t94.5 -33.5q63 0 91.5 29.5t28.5 79.5q0 52 -30 77.5t-90 25.5h-55v103h51q59 0 85 26.5t26 71.5q0 42 -24.5 67.5t-72.5 25.5q-51 0 -82 -29.5t-37 -80.5h-137q3 47 21 88t51 71
q32 30 79.5 47.5t108.5 17.5q57 0 101.5 -14.5t74.5 -39.5q30 -26 46 -61.5t16 -76.5q0 -60 -30.5 -98.5t-84.5 -58.5q63 -16 99.5 -56.5t36.5 -113.5q0 -48 -18 -88t-52 -69q-34 -28 -83.5 -43.5t-113.5 -15.5z" />
    <glyph glyph-name="four.old" horiz-adv-x="650" 
d="M377 47h-357v51l314 520h194v-466h95v-105h-95v-141h-151v141zM380 152v350l-203 -350h203z" />
    <glyph glyph-name="five.old" horiz-adv-x="597" 
d="M291 -105q-64 0 -112 16.5t-80 45.5t-49 68.5t-20 86.5h142q3 -22 10.5 -40t21.5 -31q13 -14 34 -21.5t52 -7.5q54 0 84.5 36t30.5 93t-32.5 90.5t-86.5 33.5q-50 0 -82 -16t-53 -42h-86l9 412h443v-121h-328l-3 -189q23 26 61.5 44.5t96.5 18.5q47 0 86 -15.5t68 -44.5
q28 -30 44 -73t16 -98q0 -56 -19 -101.5t-54 -77.5t-84.5 -49.5t-109.5 -17.5z" />
    <glyph glyph-name="six.old" horiz-adv-x="636" 
d="M328 -11q-78 0 -132.5 25t-88.5 70q-34 44 -49 105t-15 133v32q0 90 22 159t62 116t95 71.5t120 24.5q103 0 165.5 -49t74.5 -146h-144q-8 36 -30 57t-68 21q-66 0 -103 -59.5t-40 -181.5q23 38 65 63t105 25q49 0 91.5 -15.5t73.5 -44.5t48.5 -71t17.5 -95
q0 -54 -19 -98.5t-54 -75.5q-35 -32 -85 -49t-112 -17zM327 102q54 0 86.5 34.5t32.5 90.5t-32 91t-87 35q-27 0 -49.5 -9t-38.5 -25q-17 -16 -26 -38.5t-9 -48.5q0 -60 34.5 -95t88.5 -35z" />
    <glyph glyph-name="seven.old" horiz-adv-x="554" 
d="M340 494h-316v124h514v-17l-271 -695h-161z" />
    <glyph glyph-name="eight.old" horiz-adv-x="623" 
d="M311 -11q-57 0 -107 13.5t-87 40.5t-58.5 66.5t-21.5 90.5q0 66 38.5 111t99.5 67q-48 20 -78.5 57t-30.5 93q0 47 20 84t54 62t79 38t94 13q50 0 94.5 -13t78.5 -38q33 -25 52.5 -61.5t19.5 -82.5q0 -57 -30.5 -94t-78.5 -57q62 -22 99 -66.5t37 -107.5q0 -52 -21 -92
t-57 -67q-37 -28 -87.5 -42.5t-108.5 -14.5zM312 103q52 0 86 29.5t34 81.5t-34 81t-85 29q-25 0 -47.5 -7.5t-38.5 -21.5q-17 -14 -26.5 -34.5t-9.5 -46.5t9.5 -47t26.5 -35q16 -14 38 -21.5t47 -7.5zM314 423q44 0 72.5 26t28.5 71q0 43 -29.5 69t-72.5 26t-73 -25.5
t-30 -70.5t31 -70.5t73 -25.5z" />
    <glyph glyph-name="nine.old" horiz-adv-x="636" 
d="M297 -105q-112 0 -176.5 53.5t-75.5 148.5h145q8 -35 33.5 -60t77.5 -25q37 0 62.5 13.5t42.5 43.5q16 29 24 74.5t10 109.5q-24 -38 -65.5 -63.5t-104.5 -25.5q-50 0 -92 15.5t-73 44.5t-48.5 70t-17.5 93q0 55 18.5 100t53.5 77q35 31 85 48.5t113 17.5q78 0 132.5 -25
t88.5 -70q33 -45 48 -107t15 -135v-30q0 -176 -75.5 -272t-220.5 -96zM309 266q55 0 89 34.5t34 86.5q0 61 -34 95.5t-89 34.5q-54 0 -86.5 -34.5t-32.5 -89.5q0 -57 32 -92t87 -35z" />
    <glyph glyph-name="space.tab" horiz-adv-x="300" 
 />
    <glyph glyph-name="dollar.tab" 
d="M267 -10q-62 4 -107 23.5t-75 50.5q-30 30 -45.5 71t-18.5 88h142q2 -22 8 -41.5t18 -34.5q11 -16 30 -27t48 -15v194q-57 9 -99.5 25.5t-70.5 42.5q-28 25 -42 61.5t-14 85.5q0 43 16 80t46 65q29 27 71 44t93 21v89h70v-90q99 -9 155.5 -61t66.5 -148h-138
q-7 38 -26 62t-58 32v-179q54 -9 97.5 -23.5t73.5 -39.5t46 -61.5t16 -88.5q0 -44 -15 -83.5t-44 -69.5t-73 -49.5t-101 -23.5v-125h-70v125zM427 200q0 36 -18.5 55.5t-71.5 31.5v-182q43 8 66.5 33t23.5 62zM178 527q0 -17 4 -30.5t14 -23.5q9 -11 26.5 -18.5t44.5 -13.5
v169q-45 -6 -67 -28.5t-22 -54.5z" />
    <glyph glyph-name="cent.tab" 
d="M280 -9q-52 5 -96 24.5t-76 53.5q-32 33 -50 80t-18 106v8q0 58 18.5 105.5t50.5 82.5q32 34 76 55t95 27v96h71v-96q41 -4 78 -17.5t66 -37.5q28 -25 46.5 -61t22.5 -85h-134q-5 39 -26 61t-53 30v-328q35 8 59.5 33.5t28.5 70.5h128q-5 -87 -62 -143t-154 -65v-126h-71
v126zM184 257q0 -68 25.5 -108t70.5 -52v325q-44 -12 -70 -52t-26 -105v-8z" />
    <glyph glyph-name="Euro.tab" 
d="M13 453h53q3 64 22.5 114.5t53.5 85.5q33 35 79 53.5t102 18.5q103 0 164 -56.5t69 -175.5h-135q-6 58 -29 85.5t-69 27.5q-53 0 -81 -38t-32 -115h173l-12 -67h-161v-61h150l-12 -66h-138q4 -77 31 -113t84 -36q48 0 73 29t32 94h133q-7 -124 -70 -184t-173 -60
q-113 0 -180 69.5t-74 200.5h-53v66h53v61h-53v67z" />
    <glyph glyph-name="sterling.tab" 
d="M38 392h53q-6 25 -10 52.5t-4 59.5q0 52 18.5 93.5t50.5 69.5t76 43t94 15q115 0 172.5 -57.5t62.5 -163.5h-135q-8 51 -29 74t-66 23q-43 0 -69 -26.5t-26 -77.5q0 -29 3 -54.5t8 -50.5h180v-91h-164q4 -21 6 -43t2 -45q0 -16 -2.5 -31t-8.5 -29q34 -11 63.5 -22
t52.5 -11q31 0 50 15t22 53h131q-3 -90 -48.5 -143.5t-127.5 -53.5q-34 0 -62.5 8.5t-52.5 19.5q-25 10 -45.5 19t-39.5 9q-26 0 -37.5 -14t-13.5 -33h-117q4 49 26.5 92.5t68.5 62.5q5 12 7 27t2 32q0 23 -4 44t-9 43h-78v91z" />
    <glyph glyph-name="yen.tab" 
d="M70 356h145l-184 359h164l117 -253l112 253h145l-177 -359h149v-67h-158v-61h158v-66h-158v-162h-158v162h-155v66h155v61h-155v67z" />
    <glyph glyph-name="florin.tab" 
d="M95 414h109l20 134q13 93 65 134.5t136 41.5q24 0 41 -2.5t34 -8.5v-110q-11 4 -24.5 6.5t-32.5 2.5q-35 0 -53.5 -20t-23.5 -55l-18 -123h130v-102h-145l-72 -494h-144l72 494h-94v102z" />
    <glyph glyph-name="zero.tab" 
d="M303 115q58 0 81.5 39.5t23.5 131.5v145q0 88 -25 129t-82 41t-83 -41t-26 -132v-143q0 -92 27.5 -131t83.5 -39zM300 -11q-120 0 -190.5 75t-70.5 220v143q0 73 19 129t54 94q34 37 82.5 56t106.5 19t106 -18t82 -54t53 -91t19 -129v-145q0 -147 -69.5 -223t-191.5 -76z
" />
    <glyph glyph-name="one.tab" 
d="M275 554l-184 -133v138l199 156h147v-715h-162v554z" />
    <glyph glyph-name="two.tab" 
d="M30 26l244 276q52 61 81 109t29 98q0 45 -22 69t-64 24q-45 0 -70 -30t-32 -102h-148q3 58 19.5 105t48.5 81q31 33 77.5 51t109.5 18q118 0 179.5 -57t61.5 -152q0 -36 -11 -69.5t-30 -65.5t-45 -64t-57 -64l-127 -127h271v-126h-515v26z" />
    <glyph glyph-name="three.tab" 
d="M298 -11q-131 0 -197.5 63.5t-71.5 174.5h143q4 -53 31 -85.5t89 -32.5q59 0 85 27.5t26 74.5q0 51 -26 77t-83 26h-56v108h54q53 0 78.5 24.5t25.5 69.5q0 38 -22.5 63t-70.5 25t-77.5 -28t-34.5 -79h-140q3 51 21 93t51 72t79 46.5t104 16.5q56 0 100 -14.5t75 -39.5
q30 -26 46 -62t16 -78q0 -60 -31.5 -98.5t-83.5 -56.5q60 -14 96.5 -56.5t36.5 -110.5q0 -102 -69 -161t-194 -59z" />
    <glyph glyph-name="four.tab" 
d="M346 142h-319v54l278 519h187v-462h76v-111h-76v-142h-146v142zM348 253v337l-177 -337h177z" />
    <glyph glyph-name="five.tab" 
d="M291 -11q-126 0 -187 60t-66 166h142q3 -24 9.5 -42.5t19.5 -30.5q12 -13 32 -20t49 -7q53 0 80 34t27 94q0 57 -30 89.5t-83 32.5q-48 0 -78.5 -16t-50.5 -42h-87l9 408h435v-123h-318l-3 -182q21 26 57.5 46.5t93.5 20.5q48 0 87 -16t67 -46q27 -31 42 -74.5t15 -97.5
q0 -59 -18.5 -106t-52.5 -80t-82.5 -50.5t-108.5 -17.5z" />
    <glyph glyph-name="six.tab" 
d="M311 -11q-74 0 -125.5 24t-84.5 67t-48 102.5t-15 130.5v48q0 89 21.5 157t59.5 114t91.5 69.5t117.5 23.5q98 0 159 -48t69 -150h-139q-8 38 -28 59t-63 21q-64 0 -100.5 -56.5t-38.5 -173.5q22 37 61.5 62t99.5 25q47 0 87 -15.5t70 -44.5q29 -29 45.5 -71.5
t16.5 -96.5q0 -56 -17.5 -101.5t-50.5 -77.5t-80.5 -50t-107.5 -18zM309 109q51 0 82.5 34t31.5 89q0 57 -31.5 90.5t-83.5 33.5t-85.5 -32t-33.5 -85q0 -63 33.5 -96.5t86.5 -33.5z" />
    <glyph glyph-name="seven.tab" 
d="M358 586h-308v129h509v-18l-265 -697h-163z" />
    <glyph glyph-name="eight.tab" 
d="M300 -11q-55 0 -103 13.5t-83 40.5q-36 27 -56.5 66.5t-20.5 92.5q0 66 33.5 111t91.5 68q-46 20 -72 57t-26 91q0 46 19.5 82.5t52.5 62.5q33 25 76 38t90 13q48 0 91 -13t76 -38q32 -25 50.5 -61.5t18.5 -82.5q0 -54 -27 -90.5t-72 -57.5q60 -22 92.5 -67t32.5 -109
q0 -53 -20 -93t-55 -68q-36 -28 -84 -42t-105 -14zM301 110q49 0 81.5 28t32.5 80t-32 80t-81 28q-48 0 -82 -27.5t-34 -81.5q0 -26 9 -46t25 -33q16 -14 36.5 -21t44.5 -7zM303 426q42 0 69.5 24.5t27.5 68.5q0 42 -28 66.5t-70 24.5q-41 0 -69.5 -24.5t-28.5 -66.5
q0 -44 29 -68.5t70 -24.5z" />
    <glyph glyph-name="nine.tab" 
d="M282 -10q-110 0 -172 51t-72 152h140q8 -38 30.5 -61.5t71.5 -23.5q69 0 101 55.5t34 173.5q-23 -37 -63 -61.5t-100 -24.5q-47 0 -87 15t-69 44t-46 71t-17 97t17.5 101t50.5 79q33 32 80.5 50t107.5 18q137 0 205 -83.5t68 -238.5v-62q0 -171 -73 -261.5t-207 -90.5z
M292 360q52 0 85.5 31t33.5 85q0 62 -33.5 96.5t-86.5 34.5q-51 0 -82.5 -33.5t-31.5 -89.5q0 -57 31.5 -90.5t83.5 -33.5z" />
    <glyph glyph-name="percent.tab" horiz-adv-x="800" 
d="M210 469q31 0 48.5 22.5t17.5 62.5q0 38 -17.5 61t-48.5 23t-48.5 -22t-17.5 -62q0 -42 17.5 -63.5t48.5 -21.5zM209 383q-38 0 -69.5 13t-54.5 36q-23 22 -36 53.5t-13 67.5t13.5 67t37.5 54q23 22 55 35t68 13t68 -12.5t55 -34.5t36.5 -53t13.5 -67q0 -37 -13 -68.5
t-36 -54.5t-55 -36t-70 -13zM589 715h90l-466 -715h-90zM591 76q31 0 48 22t17 62q0 39 -17 61.5t-48 22.5t-49 -22t-18 -62q0 -42 18 -63t49 -21zM590 -11q-38 0 -69.5 13t-54.5 36q-23 22 -36 53.5t-13 67.5t13.5 67.5t37.5 54.5q23 22 55 35t68 13t68 -12.5t55 -34.5
t36.5 -53t13.5 -67q0 -37 -13 -68.5t-36 -54.5q-23 -24 -55 -37t-70 -13z" />
    <glyph glyph-name="perthousand.tab" horiz-adv-x="1000" 
d="M178 472q24 0 35.5 21.5t11.5 63.5q0 43 -11.5 64t-35.5 21q-23 0 -35.5 -20t-12.5 -65t12.5 -65t35.5 -20zM177 390q-64 0 -105.5 44.5t-41.5 121.5q0 39 11.5 69.5t31.5 52.5q20 21 47 32.5t58 11.5t57.5 -11t46.5 -32t31.5 -51t11.5 -69t-11 -70.5t-30 -52.5
q-20 -22 -47.5 -34t-59.5 -12zM529 715h88l-466 -715h-88zM498 71q24 0 35.5 21.5t11.5 64.5t-11.5 64t-35.5 21q-23 0 -35 -21t-12 -64q0 -45 12 -65.5t35 -20.5zM498 -11q-65 0 -106 45t-41 122q0 39 11.5 69.5t31.5 52.5q20 21 47 32.5t57 11.5q31 0 57.5 -11t46.5 -32
t31.5 -51.5t11.5 -69.5t-11 -70.5t-30 -52.5q-20 -22 -47 -34t-59 -12zM823 71q24 0 35.5 21.5t11.5 64.5t-11.5 64t-35.5 21t-36 -21t-12 -64q0 -45 12.5 -65.5t35.5 -20.5zM822 -11q-65 0 -106 45t-41 122q0 39 11.5 69.5t31.5 52.5q20 21 47 32.5t58 11.5q30 0 57 -11
t47 -32t31.5 -51.5t11.5 -69.5t-11 -70.5t-31 -52.5q-20 -22 -47 -34t-59 -12z" />
    <glyph glyph-name="plus.tab" 
d="M241 286h-175v109h175v191h118v-191h176v-109h-176v-191h-118v191z" />
    <glyph glyph-name="minus.tab" 
d="M65 397h471v-113h-471v113z" />
    <glyph glyph-name="plusminus.tab" 
d="M241 336h-180v108h180v172h118v-172h180v-108h-180v-171h-118v171zM61 100h480v-100h-480v100z" />
    <glyph glyph-name="multiply.tab" 
d="M70 182l153 153l-154 154l77 78l154 -155l153 153l78 -77l-154 -153l155 -154l-78 -78l-154 155l-153 -153z" />
    <glyph glyph-name="divide.tab" 
d="M300 60q-35 0 -59 23.5t-24 58.5q0 34 24 58t59 24t59 -24t24 -58q0 -35 -24 -58.5t-59 -23.5zM61 393h479v-104h-479v104zM300 458q-35 0 -59 23.5t-24 58.5t24 58.5t59 23.5t59 -23.5t24 -58.5t-24 -58.5t-59 -23.5z" />
    <glyph glyph-name="equal.tab" 
d="M78 281h444v-103h-444v103zM78 472h444v-104h-444v104z" />
    <glyph glyph-name="notequal.tab" 
d="M74 472h233l39 99h101l-39 -99h118v-104h-158l-33 -87h191v-103h-231l-38 -99h-101l38 99h-120v103h160l33 87h-193v104z" />
    <glyph glyph-name="approxequal.tab" 
d="M67 137q3 41 14.5 71t29.5 49q17 19 39 28t46 9q30 0 58 -6.5t55 -14.5q26 -8 49 -14.5t42 -6.5q17 0 29.5 11t15.5 34h88q-2 -40 -13 -69t-28 -48q-18 -20 -40 -29.5t-46 -9.5q-30 0 -59 6.5t-55 14.5q-26 7 -49 13.5t-42 6.5t-30.5 -11t-15.5 -34h-88zM67 342
q3 41 14.5 70.5t29.5 48.5q17 19 39 28t46 9q30 0 58 -6.5t55 -13.5q26 -8 49 -14.5t42 -6.5q17 0 29.5 11t15.5 33h88q-2 -40 -13 -69t-28 -48q-18 -20 -40 -29.5t-46 -9.5q-30 0 -59 6.5t-55 14.5t-49 14.5t-42 6.5t-30.5 -11t-15.5 -34h-88z" />
    <glyph glyph-name="less.tab" 
d="M87 308v29l421 235v-132l-226 -117l226 -121v-130z" />
    <glyph glyph-name="greater.tab" 
d="M93 205l225 117l-225 121v130l420 -236v-29l-420 -235v132z" />
    <glyph glyph-name="lessequal.tab" 
d="M91 352v29l408 218v-130l-200 -102l200 -101v-132zM91 100h408v-100h-408v100z" />
    <glyph glyph-name="greaterequal.tab" 
d="M101 266l200 101l-200 102v130l408 -218v-29l-408 -218v132zM101 100h408v-100h-408v100z" />
    <glyph glyph-name="period.tab" horiz-adv-x="301" 
d="M150 -9q-38 0 -63.5 25.5t-25.5 62.5q0 36 25.5 61.5t63.5 25.5t64 -25.5t26 -61.5q0 -18 -7 -34t-19 -28t-28.5 -19t-35.5 -7z" />
    <glyph glyph-name="comma.tab" horiz-adv-x="301" 
d="M23 -86l88 247l136 -51l-136 -233z" />
    <glyph glyph-name="colon.tab" horiz-adv-x="300" 
d="M149 -9q-38 0 -63 25.5t-25 62.5q0 36 25 61.5t63 25.5t64 -25.5t26 -61.5q0 -18 -7 -34t-19 -28t-28.5 -19t-35.5 -7zM149 281q-38 0 -63 25.5t-25 62.5q0 36 25 61.5t63 25.5t64 -25.5t26 -61.5q0 -18 -7 -34t-19 -28t-28.5 -19t-35.5 -7z" />
    <glyph glyph-name="semicolon.tab" horiz-adv-x="301" 
d="M5 -86l88 247l136 -51l-136 -233zM155 281q-38 0 -63.5 25.5t-25.5 62.5q0 36 25.5 61.5t63.5 25.5t64 -25.5t26 -61.5q0 -18 -7 -34t-19 -28t-28.5 -19t-35.5 -7z" />
    <glyph glyph-name="parenleft.tab" horiz-adv-x="300" 
d="M182 -148q-25 37 -50.5 83.5t-45.5 103.5t-33 125.5t-13 148.5t13 148.5t33 125.5t45.5 103.5t50.5 83.5h110q-23 -39 -44 -87t-38 -105q-17 -58 -27 -125t-10 -144t10 -144t27 -124t38 -105t44 -88h-110z" />
    <glyph glyph-name="parenright.tab" horiz-adv-x="300" 
d="M8 -148q22 40 43.5 88t38.5 105t27 124t10 144t-10 144t-27 125q-17 57 -38.5 105t-43.5 87h110q25 -37 50.5 -83.5t45.5 -103.5t33 -125.5t13 -148.5t-13 -148.5t-33 -125.5t-45.5 -103.5t-50.5 -83.5h-110z" />
    <glyph glyph-name="bracketleft.tab" horiz-adv-x="300" 
d="M54 776h223v-99h-90v-726h90v-99h-223v924z" />
    <glyph glyph-name="bracketright.tab" horiz-adv-x="300" 
d="M23 -49h90v726h-90v99h223v-924h-223v99z" />
    <glyph glyph-name="braceleft.tab" horiz-adv-x="300" 
d="M277 -147q-126 0 -175.5 53t-26.5 172l19 93q4 19 2.5 35.5t-9.5 28.5t-24.5 20.5t-43.5 13.5v94q27 4 43.5 12.5t24.5 20.5t9.5 28t-2.5 35l-19 94q-24 121 26 173t176 52v-98q-26 -1 -43 -6.5t-26 -18.5q-9 -14 -10.5 -35.5t3.5 -53.5l18 -104q11 -57 -14.5 -91
t-84.5 -55q60 -20 85 -54t14 -91l-18 -104q-11 -65 6.5 -90t69.5 -27v-97z" />
    <glyph glyph-name="braceright.tab" horiz-adv-x="300" 
d="M23 -50q52 2 69 27t7 90l-18 104q-11 57 14 91t85 54q-59 21 -84.5 55t-14.5 91l18 104q5 32 3.5 53.5t-10.5 35.5q-9 13 -26 18.5t-43 6.5v98q126 0 176 -52t26 -173l-19 -94q-8 -38 7 -63t68 -33v-94q-53 -9 -68 -34t-7 -64l19 -93q23 -119 -26.5 -172t-175.5 -53v97z
" />
    <glyph glyph-name="dollar.oldtab" 
d="M268 -9q-61 4 -105.5 23t-73.5 48.5t-44 68.5t-18 85h140q3 -21 8.5 -39.5t17 -33.5t29.5 -25.5t46 -14.5v188q-113 18 -167.5 65t-54.5 143q0 42 15.5 77.5t44.5 62t70 43t92 20.5v87h69v-88q97 -9 153.5 -58.5t65.5 -143.5h-136q-7 38 -26 60t-57 30v-172
q54 -9 96.5 -23.5t72 -38.5t45 -59t15.5 -86q0 -43 -15 -81.5t-44 -67.5t-71.5 -48t-98.5 -23v-121h-69v122zM426 194q0 35 -18.5 54t-70.5 31v-177q42 8 65.5 32.5t23.5 59.5zM182 511q0 -17 3.5 -29.5t13 -22.5t26.5 -17.5t43 -13.5v163q-42 -5 -64 -27t-22 -53z" />
    <glyph glyph-name="Euro.oldtab" 
d="M28 439h51q3 62 22 111t51.5 83t77 52t98.5 18q100 0 159.5 -54.5t67.5 -170.5h-131q-6 56 -28 82.5t-67 26.5q-103 0 -110 -148h168l-11 -64h-157v-59h145l-11 -65h-134q4 -75 30 -109.5t81 -34.5q47 0 71.5 28t31.5 91h129q-7 -120 -68.5 -178.5t-167.5 -58.5
q-109 0 -174.5 67t-72.5 195h-51v65h51v59h-51v64z" />
    <glyph glyph-name="sterling.oldtab" 
d="M37 385h50q-6 23 -9.5 48.5t-3.5 54.5q0 51 19.5 91t52.5 67.5t77 42t93 14.5q112 0 170 -56t63 -159h-142q-7 50 -25 72t-61 22q-42 0 -66 -25.5t-24 -75.5q0 -26 2 -49.5t6 -46.5h171v-97h-154q6 -39 6 -81q0 -17 -2.5 -31t-7.5 -28q32 -10 58.5 -21t49.5 -11
q31 0 49 15t21 51h136q-2 -43 -15 -78.5t-36.5 -60.5t-55.5 -38.5t-72 -13.5q-33 0 -60 8.5t-50 19t-42.5 19t-37.5 8.5q-26 0 -37.5 -14t-13.5 -32h-122q3 45 27 85.5t67 60.5q5 13 7.5 27.5t2.5 33.5q0 20 -4 40t-9 41h-78v97z" />
    <glyph glyph-name="yen.oldtab" 
d="M77 354h141l-180 340h160l114 -244l110 244h140l-172 -340h145v-65h-154v-59h154v-65h-154v-165h-153v165h-151v65h151v59h-151v65z" />
    <glyph glyph-name="zero.oldtab" 
d="M302 112q57 0 82.5 40t25.5 115v88q0 75 -26 115t-83 40t-84 -39.5t-27 -114.5v-90q0 -75 27.5 -114.5t84.5 -39.5zM299 -11q-60 0 -108 19.5t-81 56t-51 87.5t-18 114v89q0 63 19 114t53 87t82 55t105 19t105 -18.5t82 -53.5t53 -85.5t19 -114.5v-89q0 -64 -18 -115.5
t-51.5 -88t-82 -56.5t-108.5 -20z" />
    <glyph glyph-name="one.oldtab" 
d="M283 468l-186 -127v132l204 146h134v-619h-152v468z" />
    <glyph glyph-name="two.oldtab" 
d="M35 25l236 223q53 51 82.5 91.5t29.5 86.5q0 40 -22.5 63.5t-66.5 23.5q-45 0 -71.5 -29.5t-34.5 -92.5h-137q4 55 22.5 99t50.5 75t77 48t101 17q55 0 98.5 -14t73.5 -39.5t46 -61t16 -78.5q0 -33 -10.5 -62t-30 -56.5t-46 -55t-57.5 -56.5l-101 -93h251v-114h-507v25z
" />
    <glyph glyph-name="three.oldtab" 
d="M295 -105q-65 0 -114 17.5t-82 48.5t-50 74.5t-19 95.5h139q5 -54 33 -87.5t91 -33.5q60 0 87.5 29t27.5 79q0 104 -114 104h-53v103h50q55 0 80.5 27t25.5 72q0 41 -23.5 66.5t-71.5 25.5q-50 0 -79.5 -28.5t-34.5 -81.5h-136q2 47 20.5 88t51 71t78.5 47.5t104 17.5
q56 0 99 -14.5t72.5 -40t45 -60.5t15.5 -77q0 -61 -30 -99.5t-81 -56.5q60 -14 96.5 -56t36.5 -111q0 -50 -18 -91t-52.5 -69.5t-83.5 -44t-111 -15.5z" />
    <glyph glyph-name="four.oldtab" 
d="M342 47h-318v50l276 521h187v-467h82v-104h-82v-141h-145v141zM345 151v346l-182 -346h182z" />
    <glyph glyph-name="five.oldtab" 
d="M295 -105q-62 0 -108 15.5t-76.5 44t-47 68.5t-18.5 89h137q3 -23 10 -41.5t20 -32t33 -20.5t49 -7q53 0 81 35t28 95q0 58 -30 91t-83 33q-46 0 -77 -15.5t-52 -42.5h-83l8 412h425v-120h-312l-3 -190q20 26 56.5 45.5t93.5 19.5q46 0 84 -16t65 -45.5t41.5 -72
t14.5 -94.5q0 -58 -18 -104.5t-51.5 -79t-81 -50t-105.5 -17.5z" />
    <glyph glyph-name="six.oldtab" 
d="M313 -11q-69 0 -119.5 23t-83 64.5t-48 99.5t-15.5 129v65q0 85 20 151.5t57 111.5t88.5 68.5t114.5 23.5q96 0 156.5 -47.5t69.5 -147.5h-136q-7 38 -28.5 59t-64.5 21q-62 0 -96.5 -59t-36.5 -183q23 35 61.5 61t98.5 26q47 0 86 -14.5t67.5 -43t44 -70t15.5 -94.5
q0 -55 -17.5 -100t-50 -77t-79 -49.5t-104.5 -17.5zM313 103q49 0 81 33.5t32 89.5q0 59 -31.5 93t-82.5 34q-50 0 -83.5 -32.5t-33.5 -87.5q0 -63 33.5 -96.5t84.5 -33.5z" />
    <glyph glyph-name="seven.oldtab" 
d="M355 494h-306v124h506v-17l-273 -695h-162z" />
    <glyph glyph-name="eight.oldtab" 
d="M301 -11q-54 0 -101 13.5t-82 40.5t-55 66.5t-20 90.5q0 66 35 111t94 67q-48 20 -75 57t-27 93q0 47 19 84t50.5 62t73.5 38t89 13t89 -13t73.5 -38t49.5 -61.5t18 -82.5q0 -57 -27.5 -94t-74.5 -57q60 -22 94 -66.5t34 -107.5q0 -52 -19.5 -92t-54 -67.5t-81.5 -42
t-102 -14.5zM301 103q49 0 80.5 29t31.5 82q0 52 -31 81t-80 29q-24 0 -44.5 -7.5t-36 -21.5t-24.5 -34.5t-9 -47.5q0 -52 32.5 -81t80.5 -29zM303 423q42 0 68 26t26 72q0 43 -27.5 69t-67.5 26t-68 -25.5t-28 -70.5t29 -71t68 -26z" />
    <glyph glyph-name="nine.oldtab" 
d="M281 -106q-107 0 -168 52t-69 151h134q7 -38 30.5 -62.5t74.5 -24.5q67 0 95.5 57.5t30.5 179.5q-22 -37 -60 -60t-96 -23q-46 0 -85.5 14.5t-68.5 43t-45.5 69.5t-16.5 95t18 99t51 77.5t80 50t104 17.5q69 0 118.5 -22.5t82 -63.5t48 -99t15.5 -128v-70
q0 -171 -68.5 -262t-204.5 -91zM291 267q50 0 83 33t33 87q0 63 -33 97t-84 34q-49 0 -81.5 -34t-32.5 -90q0 -59 32 -93t83 -34z" />
    <glyph glyph-name="one.sup" horiz-adv-x="267" 
d="M103 668l-82 -49v89l97 65h95v-363h-110v258z" />
    <glyph glyph-name="two.sup" horiz-adv-x="329" 
d="M6 424l128 134q29 30 46 53.5t17 46.5q0 18 -9.5 28.5t-28.5 10.5q-20 0 -31.5 -13.5t-15.5 -43.5h-99q3 68 43 103t108 35q70 0 104.5 -32t34.5 -81q0 -38 -20 -68t-52 -61l-49 -48h124v-78h-300v14z" />
    <glyph glyph-name="three.sup" horiz-adv-x="351" 
d="M168 403q-40 0 -68.5 9.5t-47.5 25.5q-19 17 -28.5 40t-10.5 51h96q2 -21 14.5 -35t38.5 -14q24 0 36 11t12 30q0 21 -12.5 31t-37.5 10h-29v64h28q25 0 37 10t12 30q0 16 -10 26t-30 10t-33 -12t-16 -33h-96q4 53 41 87t106 34q67 0 104 -27t37 -73q0 -31 -17 -50.5
t-47 -27.5q32 -6 52.5 -27.5t20.5 -54.5q0 -52 -38.5 -83.5t-113.5 -31.5z" />
    <glyph glyph-name="a.alt" horiz-adv-x="627" 
d="M256 -11q-45 0 -85 17t-71 51q-31 33 -49 82.5t-18 114.5v8q0 64 18 115t49 86t72.5 53.5t87.5 18.5q60 0 98 -24.5t61 -64.5v77h144v-523h-144v85q-21 -39 -64 -67.5t-99 -28.5zM298 102q53 0 89 38.5t36 118.5v8q0 80 -32.5 118.5t-87.5 38.5q-57 0 -89.5 -40.5
t-32.5 -118.5v-8q0 -78 33 -116.5t84 -38.5z" />
    <glyph glyph-name="t.alt" horiz-adv-x="364" 
d="M94 420h-75v103h75v113h145v-113h102v-103h-102v-420h-145v420z" />
    <glyph glyph-name="aacute.alt" horiz-adv-x="627" 
d="M250 -11q-45 0 -85 17t-71 51q-31 33 -49 82.5t-18 114.5v8q0 64 18 115t49 86t72.5 53.5t87.5 18.5q60 0 98 -24.5t61 -64.5v77h144v-523h-144v85q-21 -39 -64 -67.5t-99 -28.5zM292 102q53 0 89 38.5t36 118.5v8q0 80 -32.5 118.5t-87.5 38.5q-57 0 -89.5 -40.5
t-32.5 -118.5v-8q0 -78 33 -116.5t84 -38.5zM306 753h152l-104 -159h-105z" />
    <glyph glyph-name="abreve.alt" horiz-adv-x="627" 
d="M256 -11q-45 0 -85 17t-71 51q-31 33 -49 82.5t-18 114.5v8q0 64 18 115t49 86t72.5 53.5t87.5 18.5q60 0 98 -24.5t61 -64.5v77h144v-523h-144v85q-21 -39 -64 -67.5t-99 -28.5zM298 102q53 0 89 38.5t36 118.5v8q0 80 -32.5 118.5t-87.5 38.5q-57 0 -89.5 -40.5
t-32.5 -118.5v-8q0 -78 33 -116.5t84 -38.5zM313 598q-66 0 -107 40t-45 109h95q3 -25 17 -39.5t40 -14.5t41 14.5t20 39.5h93q-4 -69 -47 -109t-107 -40z" />
    <glyph glyph-name="acircumflex.alt" horiz-adv-x="627" 
d="M250 -11q-45 0 -85 17t-71 51q-31 33 -49 82.5t-18 114.5v8q0 64 18 115t49 86t72.5 53.5t87.5 18.5q60 0 98 -24.5t61 -64.5v77h144v-523h-144v85q-21 -39 -64 -67.5t-99 -28.5zM292 102q53 0 89 38.5t36 118.5v8q0 80 -32.5 118.5t-87.5 38.5q-57 0 -89.5 -40.5
t-32.5 -118.5v-8q0 -78 33 -116.5t84 -38.5zM255 751h109l114 -156h-102l-69 63l-70 -63h-99z" />
    <glyph glyph-name="adieresis.alt" horiz-adv-x="627" 
d="M250 -11q-45 0 -85 17t-71 51q-31 33 -49 82.5t-18 114.5v8q0 64 18 115t49 86t72.5 53.5t87.5 18.5q60 0 98 -24.5t61 -64.5v77h144v-523h-144v85q-21 -39 -64 -67.5t-99 -28.5zM292 102q53 0 89 38.5t36 118.5v8q0 80 -32.5 118.5t-87.5 38.5q-57 0 -89.5 -40.5
t-32.5 -118.5v-8q0 -78 33 -116.5t84 -38.5zM207 600q-31 0 -52.5 21t-21.5 51t21.5 51t52.5 21t52.5 -21t21.5 -51t-21.5 -51t-52.5 -21zM411 600q-31 0 -52.5 21t-21.5 51t21.5 51t52.5 21t52.5 -21t21.5 -51t-21.5 -51t-52.5 -21z" />
    <glyph glyph-name="agrave.alt" horiz-adv-x="627" 
d="M256 -11q-45 0 -85 17t-71 51q-31 33 -49 82.5t-18 114.5v8q0 64 18 115t49 86t72.5 53.5t87.5 18.5q60 0 98 -24.5t61 -64.5v77h144v-523h-144v85q-21 -39 -64 -67.5t-99 -28.5zM298 102q53 0 89 38.5t36 118.5v8q0 80 -32.5 118.5t-87.5 38.5q-57 0 -89.5 -40.5
t-32.5 -118.5v-8q0 -78 33 -116.5t84 -38.5zM163 753h152l57 -159h-105z" />
    <glyph glyph-name="amacron.alt" horiz-adv-x="627" 
d="M256 -11q-45 0 -85 17t-71 51q-31 33 -49 82.5t-18 114.5v8q0 64 18 115t49 86t72.5 53.5t87.5 18.5q60 0 98 -24.5t61 -64.5v77h144v-523h-144v85q-21 -39 -64 -67.5t-99 -28.5zM298 102q53 0 89 38.5t36 118.5v8q0 80 -32.5 118.5t-87.5 38.5q-57 0 -89.5 -40.5
t-32.5 -118.5v-8q0 -78 33 -116.5t84 -38.5zM168 712h291v-87h-291v87z" />
    <glyph glyph-name="aogonek.alt" horiz-adv-x="627" 
d="M490 -182q-51 0 -81.5 21.5t-30.5 59.5q0 35 25.5 60t57.5 41h-42v85q-21 -39 -64 -67.5t-99 -28.5q-45 0 -85 17t-71 50.5t-49 83t-18 114.5v8q0 64 18 115t49 86t72.5 53.5t87.5 18.5q60 0 98 -24.5t61 -64.5v77h144v-514q-35 -23 -49.5 -42t-14.5 -38q0 -16 9 -23.5
t24 -7.5q23 0 38 7v-72q-13 -6 -32 -10.5t-48 -4.5zM298 102q53 0 89 38.5t36 118.5v8q0 80 -32.5 118.5t-87.5 38.5q-57 0 -89.5 -40.5t-32.5 -118.5v-8q0 -78 33 -116.5t84 -38.5z" />
    <glyph glyph-name="aring.alt" horiz-adv-x="627" 
d="M256 -11q-45 0 -85 17t-71 51q-31 33 -49 82.5t-18 114.5v8q0 64 18 115t49 86t72.5 53.5t87.5 18.5q60 0 98 -24.5t61 -64.5v77h144v-523h-144v85q-21 -39 -64 -67.5t-99 -28.5zM298 102q53 0 89 38.5t36 118.5v8q0 80 -32.5 118.5t-87.5 38.5q-57 0 -89.5 -40.5
t-32.5 -118.5v-8q0 -78 33 -116.5t84 -38.5zM311 643q21 0 35 15t14 38t-14 38.5t-35 15.5q-22 0 -35.5 -15.5t-13.5 -38.5t13.5 -38t35.5 -15zM311 585q-24 0 -44.5 9t-36.5 24t-25 35t-9 43t9 43.5t25 35.5t36.5 24t44.5 9t44.5 -9t36.5 -24t25 -35.5t9 -43.5t-9 -43
t-25 -35t-36.5 -24t-44.5 -9z" />
    <glyph glyph-name="aringacute.alt" horiz-adv-x="627" 
d="M250 -11q-45 0 -85 17t-71 51q-31 33 -49 82.5t-18 114.5v8q0 64 18 115t49 86t72.5 53.5t87.5 18.5q60 0 98 -24.5t61 -64.5v77h144v-523h-144v85q-21 -39 -64 -67.5t-99 -28.5zM292 102q53 0 89 38.5t36 118.5v8q0 80 -32.5 118.5t-87.5 38.5q-57 0 -89.5 -40.5
t-32.5 -118.5v-8q0 -78 33 -116.5t84 -38.5zM305 632q21 0 35 15t14 38t-14 38.5t-35 15.5q-22 0 -35.5 -15.5t-13.5 -38.5t13.5 -38t35.5 -15zM305 574q-24 0 -44.5 9t-36.5 24t-25 35t-9 43t9 43.5t25 35.5t36.5 24t44.5 9t44.5 -9t36.5 -24t25 -35.5t9 -43.5t-9 -43
t-25 -35t-36.5 -24t-44.5 -9zM308 967h157l-101 -139h-109z" />
    <glyph glyph-name="atilde.alt" horiz-adv-x="627" 
d="M250 -11q-45 0 -85 17t-71 51q-31 33 -49 82.5t-18 114.5v8q0 64 18 115t49 86t72.5 53.5t87.5 18.5q60 0 98 -24.5t61 -64.5v77h144v-523h-144v85q-21 -39 -64 -67.5t-99 -28.5zM292 102q53 0 89 38.5t36 118.5v8q0 80 -32.5 118.5t-87.5 38.5q-57 0 -89.5 -40.5
t-32.5 -118.5v-8q0 -78 33 -116.5t84 -38.5zM367 598q-19 0 -35 6t-29 13l-26 13q-12 6 -23 6q-13 0 -22.5 -10.5t-12.5 -26.5h-83q5 69 35 105t75 36q18 0 34 -6t30 -12q14 -7 26.5 -13t24.5 -6q14 0 22.5 10t11.5 27h84q-6 -70 -37.5 -106t-74.5 -36z" />
    <glyph glyph-name="germandbls.alt" horiz-adv-x="664" 
d="M446 -9q-92 0 -142.5 43.5t-52.5 118.5h127q2 -30 17.5 -46.5t43.5 -16.5q26 0 42 14t16 46q0 15 -7 26.5t-19 21.5q-12 9 -28.5 18t-36.5 19q-21 11 -43 24t-39 30q-18 16 -29 37.5t-11 49.5q0 36 19.5 64t42.5 52t42.5 46.5t19.5 48.5q0 36 -21.5 53.5t-65.5 17.5
q-52 0 -82.5 -29.5t-30.5 -89.5v-539h-144v536q0 55 19.5 98t54.5 73q34 30 81.5 45.5t103.5 15.5q49 0 90.5 -11t71.5 -31q30 -21 47 -51.5t17 -69.5q0 -44 -20 -74t-44 -52q-25 -23 -45 -41.5t-20 -38.5q0 -9 5.5 -15.5t17.5 -14.5t31 -18t46 -25q22 -13 43 -28.5
t37 -34.5q16 -20 26 -45t10 -56q0 -42 -14 -74t-39 -53q-26 -22 -60.5 -33t-76.5 -11z" />
    <glyph glyph-name="tbar.alt" horiz-adv-x="364" 
d="M19 335h75v85h-75v103h75v113h145v-113h102v-103h-102v-85h102v-85h-102v-250h-145v250h-75v85z" />
    <glyph glyph-name="tcaron.alt" horiz-adv-x="358" 
d="M88 420h-75v103h75v113h145v-113h102v-103h-102v-420h-145v420zM292 760h119l-49 -174h-80z" />
    <glyph glyph-name="tcommaaccent.alt" horiz-adv-x="364" 
d="M63 -201l47 170l130 -21l-95 -176zM88 420h-75v103h75v113h145v-113h102v-103h-102v-420h-145v420z" />
    <glyph glyph-name="space_uni0326.alt" horiz-adv-x="412" 
d="M135 600l95 175l82 -26l-47 -170z" />
    <glyph glyph-name="registered.alt" horiz-adv-x="843" 
d="M270 561h153q77 0 118.5 -31t41.5 -94v-2q0 -45 -21.5 -70t-53.5 -36l99 -168h-111l-86 147h-33v-147h-107v401zM418 378q60 0 60 51v3q0 26 -15 36.5t-44 10.5h-42v-101h41zM421 32q65 0 123.5 23.5t102.5 66.5t69.5 103.5t25.5 133.5q0 72 -25 131.5t-68.5 102.5
t-101.5 66.5t-124 23.5q-67 0 -126 -24t-102.5 -67t-68.5 -103t-25 -132q0 -73 26 -133t69.5 -102.5t101.5 -66t123 -23.5zM421 -16q-78 0 -147 28.5t-120 79t-80.5 118.5t-29.5 147q0 78 29.5 146t80.5 119t120 80t149 29t149 -29t119.5 -79.5t79.5 -118t29 -145.5
q0 -80 -29.5 -148.5t-81 -118.5t-120.5 -79t-148 -29z" />
    <glyph glyph-name="caron.alt" horiz-adv-x="400" 
d="M172 760h119l-49 -174h-80z" />
    <glyph glyph-name="questiondown.uc" horiz-adv-x="532" 
d="M359 462q0 -29 -9 -53.5t-23 -44.5q-14 -21 -31.5 -39.5t-35.5 -35.5q-28 -26 -48 -51.5t-20 -55.5q0 -35 18.5 -54.5t58.5 -19.5q42 0 68 27.5t31 75.5h139q-2 -52 -21 -93t-51 -69q-33 -29 -77.5 -44t-97.5 -15q-56 0 -97.5 13t-69.5 37t-42 57t-14 73q0 26 7 48t18 41
t26 35.5t31 32.5q18 17 36 33.5t33 33.5t25 35t12 38v25h134v-30zM293 724q38 0 64.5 -25t26.5 -61q0 -18 -7 -34t-19 -28q-13 -12 -29.5 -18.5t-35.5 -6.5q-38 0 -64.5 25t-26.5 62q0 18 7 33.5t20 27.5q12 12 28.5 18.5t35.5 6.5z" />
    <glyph glyph-name="exclamdown.uc" horiz-adv-x="317" 
d="M99 492h118l22 -492h-162zM159 551q-38 0 -65 25t-27 62q0 18 7.5 33.5t20.5 27.5q12 12 28.5 18.5t35.5 6.5t35.5 -6.5t29.5 -18.5q12 -12 19 -27.5t7 -33.5q0 -37 -26.5 -62t-64.5 -25z" />
    <glyph glyph-name="hyphen.uc" horiz-adv-x="390" 
d="M54 386h282v-119h-282v119z" />
    <glyph glyph-name="endash.uc" horiz-adv-x="535" 
d="M45 374h445v-92h-445v92z" />
    <glyph glyph-name="emdash.uc" horiz-adv-x="924" 
d="M45 374h834v-92h-834v92z" />
    <glyph glyph-name="guilsinglleft.uc" horiz-adv-x="312" 
d="M41 301l127 192h107l-122 -192l122 -192h-107z" />
    <glyph glyph-name="guilsinglright.uc" horiz-adv-x="312" 
d="M159 301l-121 192h107l126 -192l-126 -192h-107z" />
    <glyph glyph-name="guillemotleft.uc" horiz-adv-x="487" 
d="M41 301l127 192h103l-122 -192l122 -192h-103zM220 301l127 192h103l-122 -192l122 -192h-103z" />
    <glyph glyph-name="guillemotright.uc" horiz-adv-x="487" 
d="M159 301l-121 192h103l126 -192l-126 -192h-103zM338 301l-121 192h103l126 -192l-126 -192h-103z" />
    <glyph glyph-name="parenleft.uc" horiz-adv-x="343" 
d="M210 -98q-30 35 -59 80.5t-52 101.5q-24 55 -38.5 120t-14.5 139t14.5 139t38.5 121q23 55 52 100.5t59 80.5h119q-27 -38 -52.5 -86t-45.5 -103q-21 -56 -33 -119.5t-12 -132.5t12 -132.5t33 -118.5q20 -56 45.5 -104t52.5 -86h-119z" />
    <glyph glyph-name="parenright.uc" horiz-adv-x="343" 
d="M15 -98q27 38 52.5 86t45.5 104q20 55 32 118.5t12 132.5q0 70 -12 133t-32 119t-45.5 103.5t-52.5 85.5h118q30 -35 59.5 -80.5t53.5 -100.5q23 -56 37.5 -121t14.5 -139t-14.5 -139t-37.5 -120q-24 -56 -53.5 -101.5t-59.5 -80.5h-118z" />
    <glyph glyph-name="bracketleft.uc" horiz-adv-x="390" 
d="M74 781h276v-107h-131v-657h131v-107h-276v871z" />
    <glyph glyph-name="bracketright.uc" horiz-adv-x="390" 
d="M41 17h130v657h-130v107h275v-871h-275v107z" />
    <glyph glyph-name="braceleft.uc" horiz-adv-x="405" 
d="M364 -92q-136 0 -197 49.5t-43 163.5l12 78q3 19 -0.5 36.5t-14.5 30.5q-12 13 -33 20.5t-54 7.5v103q33 0 54 7.5t33 20.5q11 13 14.5 30t0.5 36l-12 78q-18 117 43 165t197 48v-106q-62 -2 -84.5 -23t-14.5 -81l11 -93q6 -53 -20.5 -86.5t-80.5 -46.5
q54 -12 80.5 -45.5t20.5 -86.5l-11 -93q-4 -30 -0.5 -50.5t15.5 -32.5q11 -12 32 -17.5t52 -6.5v-106z" />
    <glyph glyph-name="braceright.uc" horiz-adv-x="405" 
d="M40 14q31 1 52 6.5t33 17.5t15 32.5t-1 50.5l-11 93q-6 53 21 86.5t81 45.5q-54 13 -81 46.5t-21 86.5l11 93q4 30 1 49.5t-15 31.5t-33 17t-52 6v106q136 0 197.5 -48t43.5 -165l-12 -78q-3 -19 0.5 -36t15.5 -30q11 -13 32 -20.5t53 -7.5v-103q-32 0 -53 -7.5
t-32 -20.5q-12 -13 -15.5 -30.5t-0.5 -36.5l12 -78q17 -114 -44 -163.5t-197 -49.5v106z" />
    <glyph glyph-name="slash.uc" horiz-adv-x="423" 
d="M294 777h119l-288 -861h-119z" />
    <glyph glyph-name="backslash.uc" horiz-adv-x="423" 
d="M10 777h118l288 -861h-119z" />
    <glyph glyph-name="bar.uc" horiz-adv-x="262" 
d="M79 777h104v-861h-104v861z" />
    <glyph glyph-name="at.uc" horiz-adv-x="919" 
d="M460 -72q-99 0 -177 32t-132 87q-54 54 -82 127t-28 155q0 95 35.5 173.5t95.5 135.5q60 56 138.5 87t164.5 31q88 0 161.5 -26.5t127.5 -73.5q53 -47 83 -113t30 -145q0 -72 -18 -122t-47 -81q-30 -31 -66 -45t-72 -14q-63 0 -93.5 21t-39.5 60q-20 -38 -55 -61.5
t-82 -23.5q-72 0 -115.5 47.5t-43.5 130.5q0 51 15 93.5t42 72.5q26 30 61 47t75 17q49 0 75 -18.5t37 -43.5l7 54h123l-31 -261q-5 -33 5 -51t38 -18q21 0 40 11t34 35q15 23 24 60.5t9 90.5q0 64 -22.5 117.5t-63.5 91.5q-42 38 -102 59t-135 21t-139.5 -25.5
t-111.5 -72.5t-74 -113t-27 -148q0 -69 21 -129.5t64 -105.5q42 -46 105.5 -72t147.5 -26q85 0 144 23t100 60h86q-23 -34 -57 -62t-76 -48q-43 -19 -93.5 -30t-105.5 -11zM441 228q18 0 35.5 9t30.5 26t21 41.5t8 55.5q0 40 -19.5 61.5t-57.5 21.5t-63 -34.5t-25 -93.5
q0 -39 18.5 -63t51.5 -24z" />
    <glyph glyph-name="grave.uc" horiz-adv-x="400" 
d="M56 902h156l52 -139h-109z" />
    <glyph glyph-name="dieresis.uc" horiz-adv-x="400" 
d="M92 769q-31 0 -52.5 21.5t-21.5 51.5t21.5 51t52.5 21q30 0 52 -21t22 -51t-22 -51.5t-52 -21.5zM307 769q-30 0 -51.5 21.5t-21.5 51.5t21.5 51t51.5 21q31 0 52.5 -21t21.5 -51t-21.5 -51.5t-52.5 -21.5z" />
    <glyph glyph-name="macron.uc" horiz-adv-x="400" 
d="M49 868h302v-91h-302v91z" />
    <glyph glyph-name="acute.uc" horiz-adv-x="400" 
d="M189 902h157l-101 -139h-109z" />
    <glyph glyph-name="circumflex.uc" horiz-adv-x="400" 
d="M140 902h123l108 -139h-104l-68 53l-69 -53h-102z" />
    <glyph glyph-name="caron.uc" horiz-adv-x="400" 
d="M28 902h104l69 -52l68 52h102l-112 -139h-123z" />
    <glyph glyph-name="breve.uc" horiz-adv-x="400" 
d="M199 757q-67 0 -108 40t-45 106h97q4 -24 17.5 -38t38.5 -14t39.5 14t19.5 38h96q-5 -66 -47 -106t-108 -40z" />
    <glyph glyph-name="dotaccent.uc" horiz-adv-x="400" 
d="M200 768q-35 0 -58 22.5t-23 54.5t23 54.5t58 22.5q34 0 57 -22.5t23 -54.5t-23 -54.5t-57 -22.5z" />
    <glyph glyph-name="ring.uc" horiz-adv-x="400" 
d="M200 808q21 0 35 15t14 38t-14 38.5t-35 15.5q-22 0 -35.5 -15.5t-13.5 -38.5t13.5 -38t35.5 -15zM200 750q-24 0 -44.5 9t-36.5 24t-25 35t-9 43t9 43.5t25 35.5t36.5 24t44.5 9t44.5 -9t36.5 -24t25 -35.5t9 -43.5t-9 -43t-25 -35t-36.5 -24t-44.5 -9z" />
    <glyph glyph-name="tilde.uc" horiz-adv-x="400" 
d="M261 764q-20 0 -36 6t-30 13q-14 6 -26 12t-23 6q-14 0 -23 -10.5t-12 -26.5h-86q5 69 37 104.5t77 35.5q18 0 34 -6t31 -13q14 -7 26.5 -13t24.5 -6q14 0 22.5 10.5t11.5 26.5h87q-6 -69 -39 -104t-76 -35z" />
    <glyph glyph-name="hungarumlaut.uc" horiz-adv-x="400" 
d="M99 902h132l-73 -139h-98zM279 902h132l-74 -139h-97z" />
    <glyph glyph-name="f.short" horiz-adv-x="360" 
d="M88 420h-69v103h69v60q0 92 49 137.5t137 45.5q23 0 39.5 -2t31.5 -7v-109q-10 4 -21.5 6t-27.5 2q-34 0 -49 -19.5t-15 -49.5v-64h113v-103h-113v-420h-144v420z" />
    <glyph glyph-name="f_f.short" horiz-adv-x="675" 
d="M88 420h-69v103h69v54q0 91 49 137t137 46q23 0 40 -3t34 -8v-108q-11 3 -23.5 5.5t-28.5 2.5q-34 0 -49 -19t-15 -50v-57h171v60q0 92 49 137.5t137 45.5q23 0 39.5 -2t31.5 -7v-109q-11 4 -22 6t-27 2q-35 0 -49.5 -19.5t-14.5 -49.5v-64h113v-103h-113v-420h-144v420
h-171v-420h-144v420z" />
    <glyph glyph-name="uni021B.alt" horiz-adv-x="364" 
d="M69 -201l47 170l130 -21l-95 -176zM94 420h-75v103h75v113h145v-113h102v-103h-102v-420h-145v420z" />
    <glyph glyph-name="semicolon.alt1" horiz-adv-x="300" 
d="M149 281q-38 0 -63 25.5t-25 62.5q0 36 25 61.5t63 25.5t64 -25.5t26 -61.5q0 -18 -7 -34t-19 -28t-28.5 -19t-35.5 -7zM67 -41q72 7 74 51q-38 1 -59 21.5t-21 55.5q0 36 25.5 57.5t60.5 21.5q40 0 66 -26t26 -72v-17q0 -78 -46.5 -115.5t-125.5 -39.5v63z" />
    <glyph glyph-name="quotedblright.alt1" horiz-adv-x="456" 
d="M48 526q67 7 69 50q-36 2 -56 21t-20 52t23.5 53t57.5 20q38 0 62.5 -25t24.5 -68v-15q0 -71 -42 -108.5t-119 -39.5v60zM255 526q67 7 69 50q-36 2 -56 21t-20 52t23.5 53t56.5 20q38 0 62.5 -25t24.5 -68v-15q0 -71 -41.5 -108.5t-118.5 -39.5v60z" />
    <glyph glyph-name="quoteright.alt1" horiz-adv-x="250" 
d="M48 526q67 7 69 50q-36 2 -56 21t-20 52t23.5 53t57.5 20q38 0 62.5 -25t24.5 -68v-15q0 -71 -42 -108.5t-119 -39.5v60z" />
    <glyph glyph-name="quotedblleft.alt1" horiz-adv-x="456" 
d="M202 660q-67 -7 -70 -50q36 -2 56.5 -21t20.5 -52t-24 -53t-57 -20q-38 0 -62.5 25t-24.5 68v14q0 71 42 108.5t119 39.5v-59zM408 660q-66 -7 -69 -50q36 -2 56 -21t20 -52t-23.5 -53t-56.5 -20q-38 0 -62.5 25t-24.5 68v14q0 71 42 108.5t118 39.5v-59z" />
    <glyph glyph-name="commaaccent.alt1alt" horiz-adv-x="400" 
d="M206 593q-32 0 -51.5 17.5t-19.5 51.5v9q0 106 129 111v-45q-61 -6 -62 -41q31 2 49 -12t18 -40q0 -23 -17.5 -37t-45.5 -14z" />
    <glyph glyph-name="quoteleft.alt1" horiz-adv-x="250" 
d="M202 660q-67 -7 -70 -50q36 -2 56.5 -21t20.5 -52t-24 -53t-57 -20q-38 0 -62.5 25t-24.5 68v14q0 71 42 108.5t119 39.5v-59z" />
    <glyph glyph-name="quotedblbase.alt1" horiz-adv-x="456" 
d="M255 -24q67 7 69 50q-36 2 -56 21t-20 52t23.5 53t56.5 20q38 0 62.5 -25t24.5 -68v-15q0 -71 -41.5 -108t-118.5 -39v59zM48 -24q67 7 69 50q-36 2 -56 21t-20 52t23.5 53t57.5 20q38 0 62.5 -25t24.5 -68v-15q0 -71 -42 -108t-119 -39v59z" />
    <glyph glyph-name="commaaccent.alt1" horiz-adv-x="388" 
d="M133 -180q61 6 62 41q-31 -2 -49 12t-18 40q0 23 18 37t46 14q32 0 51 -17.5t19 -51.5v-9q0 -107 -129 -110v44z" />
    <glyph glyph-name="comma.alt1" horiz-adv-x="293" 
d="M63 -41q72 7 75 51q-38 2 -59.5 22t-21.5 55q0 36 26 57.5t61 21.5q40 0 66 -26t26 -72v-17q0 -78 -46.5 -115.5t-126.5 -39.5v63z" />
    <glyph glyph-name="tcommaaccent.altalt1" horiz-adv-x="364" 
d="M101 -180q61 6 62 41q-31 -2 -49 12t-18 40q0 23 18 37t46 14q32 0 51 -17.5t19 -51.5v-9q0 -107 -129 -110v44zM88 420h-75v103h75v113h145v-113h102v-103h-102v-420h-145v420z" />
    <glyph glyph-name="Scommaaccent.alt1" horiz-adv-x="642" 
d="M321 -11q-74 0 -128 16.5t-90 47.5t-55 74t-22 97h155q3 -24 10 -45.5t23 -36.5q16 -16 41.5 -25.5t65.5 -9.5q54 0 86 26.5t32 68.5q0 21 -6.5 36t-21.5 26q-16 10 -42 17.5t-65 13.5q-69 9 -117.5 24.5t-79.5 41.5q-32 25 -46.5 62t-14.5 89q0 46 18.5 85t52.5 68
q34 28 82 44t107 16q121 0 189.5 -53.5t78.5 -160.5h-149q-7 48 -37 71.5t-82 23.5q-54 0 -80.5 -22.5t-26.5 -58.5q0 -19 5.5 -33.5t20.5 -24.5q14 -11 40 -19t67 -14q65 -8 114 -22.5t82 -38.5q33 -25 49.5 -63t16.5 -93q0 -48 -19 -89.5t-54 -71.5q-35 -31 -86 -49
t-114 -18zM254 -180q61 6 62 41q-31 -2 -49 12t-18 40q0 23 18 37t46 14q32 0 51 -17.5t19 -51.5v-9q0 -107 -129 -110v44z" />
    <glyph glyph-name="kcommaaccent.alt1" horiz-adv-x="555" 
d="M58 760h145v-458l168 221h154l-190 -238l205 -285h-164l-173 247v-247h-145v760zM219 -180q61 6 62 41q-31 -2 -49 12t-18 40q0 23 18 37t46 14q32 0 51 -17.5t19 -51.5v-9q0 -107 -129 -110v44z" />
    <glyph glyph-name="tcommaaccent.alt1" horiz-adv-x="377" 
d="M249 -10q-83 0 -126 41.5t-43 123.5v265h-67v103h67v113h144v-113h110v-103h-110v-252q0 -31 14.5 -46.5t43.5 -15.5q16 0 29.5 2.5t25.5 7.5v-112q-15 -5 -37 -9.5t-51 -4.5zM144 -180q61 6 62 41q-31 -2 -49 12t-18 40q0 23 18 37t46 14q32 0 51 -17.5t19 -51.5v-9
q0 -107 -129 -110v44z" />
    <glyph glyph-name="lcommaaccent.alt1" horiz-adv-x="280" 
d="M68 760h144v-760h-144v760zM78 -180q61 6 62 41q-31 -2 -49 12t-18 40q0 23 18 37t46 14q32 0 51 -17.5t19 -51.5v-9q0 -107 -129 -110v44z" />
    <glyph glyph-name="Rcommaaccent.alt1" horiz-adv-x="672" 
d="M71 715h256q63 0 114 -13t87 -40t55.5 -68t19.5 -96v-4q0 -41 -11 -72t-31 -54t-47 -39t-58 -25l189 -304h-172l-171 276h-70v-276h-161v715zM323 386q61 0 91.5 26t30.5 77v4q0 55 -31.5 76.5t-90.5 21.5h-91v-205h91zM272 -180q61 6 62 41q-31 -2 -49 12t-18 40
q0 23 18 37t46 14q32 0 51 -17.5t19 -51.5v-9q0 -107 -129 -110v44z" />
    <glyph glyph-name="quotesinglbase.alt1" horiz-adv-x="250" 
d="M48 -24q67 7 69 50q-36 2 -56 21t-20 52t23.5 53t57.5 20q38 0 62.5 -25t24.5 -68v-15q0 -71 -42 -108t-119 -39v59z" />
    <glyph glyph-name="Lcommaaccent.alt1" horiz-adv-x="560" 
d="M77 715h162v-588h291v-127h-453v715zM246 -180q61 6 62 41q-31 -2 -49 12t-18 40q0 23 18 37t46 14q32 0 51 -17.5t19 -51.5v-9q0 -107 -129 -110v44z" />
    <glyph glyph-name="Tcommaaccent.alt1" horiz-adv-x="598" 
d="M211 589h-193v126h549v-126h-193v-589h-163v589zM227 -180q61 6 62 41q-31 -2 -49 12t-18 40q0 23 18 37t46 14q32 0 51 -17.5t19 -51.5v-9q0 -107 -129 -110v44z" />
    <glyph glyph-name="Gcommaaccent.alt1" horiz-adv-x="780" 
d="M404 -11q-88 0 -155.5 27t-113.5 76q-47 48 -71 114.5t-24 146.5v8q0 81 27 148t76 115q48 48 115 75t146 27q60 0 114.5 -14t97.5 -44q43 -31 71.5 -78.5t34.5 -113.5h-161q-11 63 -50.5 92.5t-104.5 29.5q-94 0 -145.5 -64.5t-51.5 -174.5v-8q0 -52 11.5 -95.5
t35.5 -74.5q24 -32 61.5 -49.5t90.5 -17.5q45 0 77 12t53 33q21 20 31 47.5t11 58.5h-161v118h321v-76q0 -72 -22.5 -130.5t-65.5 -99.5q-43 -42 -105.5 -65t-142.5 -23zM335 -180q61 6 62 41q-31 -2 -49 12t-18 40q0 23 18 37t46 14q32 0 51 -17.5t19 -51.5v-9
q0 -107 -129 -110v44z" />
    <glyph glyph-name="gcommaaccent.alt1" horiz-adv-x="637" 
d="M296 -193q-63 0 -110 13t-78 37q-32 24 -49.5 57.5t-22.5 74.5h144q7 -35 33.5 -55.5t82.5 -20.5q66 0 99 33t33 95v79q-11 -19 -27.5 -36.5t-38.5 -30.5q-22 -14 -47.5 -22t-54.5 -8q-48 0 -89.5 17.5t-71.5 49.5q-31 32 -49 78.5t-18 104.5v7q0 56 17.5 103t48.5 81
q31 33 73 52t91 19q64 0 103.5 -25t62.5 -65v78h144v-482q-1 -117 -73.5 -175.5t-202.5 -58.5zM303 132q57 0 93 38t36 105v7q0 67 -33 105t-93 38q-61 0 -93.5 -39.5t-32.5 -104.5v-8q0 -66 34.5 -103.5t88.5 -37.5zM306 593q-32 0 -51.5 17.5t-19.5 51.5v9q0 106 129 111
v-45q-61 -6 -62 -41q31 2 49 -12t18 -40q0 -23 -17.5 -37t-45.5 -14z" />
    <glyph glyph-name="Kcommaaccent.alt1" horiz-adv-x="686" 
d="M77 715h162v-308l250 308h172l-283 -338l297 -377h-189l-247 321v-321h-162v715zM290 -180q61 6 62 41q-31 -2 -49 12t-18 40q0 23 18 37t46 14q32 0 51 -17.5t19 -51.5v-9q0 -107 -129 -110v44z" />
    <glyph glyph-name="scommaaccent.alt1" horiz-adv-x="502" 
d="M253 -11q-106 0 -165 45t-63 130h135q5 -35 24.5 -54.5t67.5 -19.5q42 0 62 15t20 42t-24.5 40.5t-81.5 21.5q-52 8 -88.5 20t-59.5 31q-24 19 -34.5 46.5t-10.5 65.5q0 41 17.5 71.5t46.5 51.5q28 20 65.5 30t77.5 10q43 0 80.5 -8.5t66.5 -27.5q28 -19 46 -50t23 -76
h-133q-6 32 -25 47.5t-57 15.5q-35 0 -54.5 -15t-19.5 -39q0 -25 22 -37t79 -20q49 -7 87 -18t64 -29q25 -19 38.5 -47t13.5 -70q0 -85 -58 -128.5t-162 -43.5zM193 -180q61 6 62 41q-31 -2 -49 12t-18 40q0 23 18 37t46 14q32 0 51 -17.5t19 -51.5v-9q0 -107 -129 -110v44z
" />
    <glyph glyph-name="rcommaaccent.alt1" horiz-adv-x="409" 
d="M64 523h145v-100q25 53 65 80t104 28v-135q-81 1 -125 -29t-44 -105v-262h-145v523zM75 -180q61 6 62 41q-31 -2 -49 12t-18 40q0 23 18 37t46 14q32 0 51 -17.5t19 -51.5v-9q0 -107 -129 -110v44z" />
    <glyph glyph-name="ncommaaccent.alt1" horiz-adv-x="615" 
d="M64 523h145v-83q20 39 62 67t108 28q39 0 71 -12t56 -36q23 -25 36 -63.5t13 -90.5v-333h-145v312q0 54 -22 79.5t-70 25.5q-47 0 -78 -28.5t-31 -86.5v-302h-145v523zM245 -180q61 6 62 41q-31 -2 -49 12t-18 40q0 23 18 37t46 14q32 0 51 -17.5t19 -51.5v-9
q0 -107 -129 -110v44z" />
    <glyph glyph-name="Ncommaaccent.alt1" horiz-adv-x="758" 
d="M77 715h188l272 -471v471h144v-715h-162l-298 509v-509h-144v715zM305 -180q61 6 62 41q-31 -2 -49 12t-18 40q0 23 18 37t46 14q32 0 51 -17.5t19 -51.5v-9q0 -107 -129 -110v44z" />
    </font>
</defs>
</svg>
